.
Авторизация | Регистрация
Хочешь лучшие торренты? Добавь свой email!
Добавить

Торрент скачать бесплатно

» » Хоккей. НХЛ 2017-2018. Даллас Старз – Вегас Голден Найтс (06.10.2017) HDTVRip [H.264 / 720p-LQ] [hand made 50fps] торрент скачать бесплатно




    Хоккей. НХЛ 2017-2018. Даллас Старз – Вегас Голден Найтс (06.10.2017) HDTVRip [H.264 / 720p-LQ] [hand made 50fps] торрент скачать бесплатно

    Опубликовал: Админ | Дата: 9-10-2017, 05:00 | Просмотров: 0

    Телекомпания: Eurosport Gold
    Жанр: Спорт
    Комментаторы: Алексей Пешнин, Игорь Знаменский

    Описание
    07 октября 2017 года, суббота. 03: 30 МСК
    НХЛ 2017-2018. Регулярный чемпионат
    Даллас Старз – Вегас Голден Найтс
    Стадион: Американ Эйрлайнс-центр (Даллас, США), 18532 зрителя (98 % при вместимости 18889)
    Главные судьи: Кендрик Николсон (Канада), Дэн О\\'Хэллоран (Канада)
    Судьи на линии: Дэррен Джиббс, Мэтт МакФерсон
    Релиз от: Багга17879
    Продолжительность: 02: 05: 34
    Качество видео: HDTVRip
    Язык озвучки: Русский
    Субтитры: отсутствуют
    Видео: AVC/H.264, 1280x720 (16: 9), ~4000 Kbps, 50 fps
    Аудио: AAC, 2 ch, 48 kHz, 128 Kbps
    Код: выделить все

    Общее
    Уникальный идентификатор : 248648753016037822964969961789670549683 (0xBB1002062E50A7699FC5EDF3FE53E8B3)
    Полное имя : F:\SPORT\Хоккей\NHL 2017-2018\(06.10.2017)_NHL 2017-2018.RS. Vegas Golden Knights - Dallas Stars.mkv
    Формат : Matroska
    Версия формата : Version 4/Version 2
    Размер файла : 3, 63 Гбайт
    Продолжительность : 2 ч. 5 м.
    Общий поток : 4142 Кбит/сек
    Дата кодирования : UTC 2017-10-07 04:17:22
    Программа кодирования : mkvmerge v8.3.0 (\\'Over the Horizon\\') 64bit
    Библиотека кодирования : libebml v1.3.1 + libmatroska v1.4.2
    Видео
    Идентификатор : 1
    Формат : AVC
    Формат/Информация : Advanced Video Codec
    Профиль формата :High@L3.2
    Параметр CABAC формата : Да
    Параметр RefFrames формата : 4 кадра
    Идентификатор кодека : V_MPEG4/ISO/AVC
    Продолжительность : 2 ч. 5 м.
    Битрейт : 4000 Кбит/сек
    Ширина : 1280 пикселей
    Высота : 720 пикселей
    Соотношение сторон : 16:9
    Режим частоты кадров : Постоянный
    Частота кадров : 50, 000 кадров/сек
    Цветовое пространство : YUV
    Субдискретизация насыщенности : 4:2:0
    Битовая глубина : 8 бит
    Тип развёртки : Прогрессивная
    Бит/(Пиксели*Кадры) : 0.087
    Размер потока : 3, 52 Гбайт (97%)
    Библиотека кодирования : x264 core 146 r2538 121396c
    Настройки программы : cabac=1/ref=3/deblock=1:0:0/analyse=0x3:0x113/me=hex/subme=7/psy=1/psy_rd=1.00:0.00/mixed_ref=1/me_range=16/chroma_me=1/trellis=1/8x8dct=1/cqm=0/deadzone=21, 11/fast_pskip=1/chroma_qp_offset=-2/threads=12/lookahead_threads=2/sliced_threads=0/nr=0/decimate=1/interlaced=0/bluray_compat=0/constrained_intra=0/bframes=3/b_pyramid=2/b_adapt=1/b_bias=0/direct=1/weightb=1/open_gop=0/weightp=2/keyint=250/keyint_min=25/scenecut=40/intra_refresh=0/rc_lookahead=40/rc=abr/mbtree=1/bitrate=4000/ratetol=1.0/qcomp=0.60/qpmin=0/qpmax=69/qpstep=4/ip_ratio=1.40/aq=1:1.00
    Default : Да
    Forced : Нет
    Аудио
    Идентификатор : 2
    Формат : AAC
    Формат/Информация : Advanced Audio Codec
    Профиль формата : LC
    Идентификатор кодека : A_AAC
    Продолжительность : 2 ч. 5 м.
    Битрейт : 128 Кбит/сек
    Каналы : 2 канала
    Расположение каналов : Front: L R
    Частота : 48, 0 КГц
    Частота кадров : 46, 875 кадров/сек (1024 SPF)
    Метод сжатия : С потерями
    Задержка видео : 9 мс.
    Размер потока : 115 Мбайт (3%)
    Default : Да
    Forced : Нет

    Скриншоты для ознакомления



    Все одноименные релизы в Клубе
    Время раздачи: 24/7 (около 1 месяца)

    Хоккей. НХЛ 2017-2018. Даллас Старз – Вегас Голден Найтс (06.10.2017) HDTVRip [H.264/720p-LQ] [hand made 50fps]
    загрузка...
    Рейтинг →
     (голосов: 1, оценка 5/5, голосовать можно 1 раз )

    Другие торренты по теме:

  • Хоккей. НХЛ Сезон 2015-16. Питсбург - Даллас (08.10.2015) WEB-DL [H.264 / 720p-LQ] скачать через торрент бесплатно
  • Хоккей. НХЛ Сезон 2015-16. Даллас Старз - Питсбург Пингвинз (22.10.2015) WEB-DL [H.264 / 720p-LQ] скачать через торрент бесплатно
  • Хоккей. НХЛ 2015-2016. Анахайм - Даллас. (15.01.2016) HDTVRip [H.264 / 720p-LQ]
  • Хоккей. НХЛ 2015-2016. Сан Хосе - Даллас. (16.01.2016) HDTVRip [H.264 / 720p-LQ]
  • Хоккей. НХЛ 2015-2016. Лос Анжелес - Даллас. (19.01.2016) HDTVRip [H.264 / 720p-LQ]
  • Хоккей. НХЛ 2015-2016. Даллас - Эдмонтон. (21.01.2016) HDTVRip [H.264 / 720p-LQ]
  • Хоккей. НХЛ 2015-2016. Даллас - Колорадо. (23.01.2016) HDTVRip [H.264 / 720p-LQ]
  • Хоккей. НХЛ 2015-2016. Даллас - Калгари. (25.01.2016) HDTVRip [H.264 / 720p-LQ]


    • Комментарии (0):

      Информация

      Информация

        Посетители, находящиеся в группе Гости, не могут оставлять комментарии в данной новости.

        ↓ Меню




        ↓ Опрос

        Вы добавили сайт в закладки?
        Да
        Нет


        Top 10 за месяц (Передачи)