.
Авторизация | Регистрация
Хочешь лучшие торренты? Добавь свой email!
Добавить

Торрент скачать бесплатно

» » Лучше всех (2017.10.08) SATRip (сезон 3, выпуск 4) торрент скачать бесплатно




    Лучше всех (2017.10.08) SATRip (сезон 3, выпуск 4) торрент скачать бесплатно

    Опубликовал: Админ | Дата: 9-10-2017, 05:00 | Просмотров: 0

    Телекомпания: Первый канал
    Жанр: ТВ-Шоу
    Ведущие: Максим Галкин

    Описание

    Новое детское телевизионное шоу талантов, куда приглашаются юные участники от трех до 12 лет. Если ваш ребенок проявляет экстраординарные способности, то его ждут в нашем шоу!
    Релиз от: -=DeMoH=-
    Продолжительность: 01: 17: 49
    Качество видео: SATRip
    Субтитры: Отсутствуют
    Видео: MPEG4, XviD, 704x448 (1.571), 25.000 fps, 1 700 Kbps (0.216 bit/pixel)
    Аудио: MP3, 48.0 KHz, 2 ch, 128 Kbps, CBR
    Код: выделить все
    Общее
    Полное имя : D:\[1]\Лучше всех\Лучше всех (2017.10.08).avi
    Формат : AVI
    Формат/Информация : Audio Video Interleave
    Размер файла : 1023 Мбайт
    Продолжительность : 1 ч. 17 м.
    Общий поток : 1837 Кбит/сек
    Программа кодирования : VirtualDubMod 1.5.10.3 |www.virtualdub-fr.org|| (build 2550/release)
    Библиотека кодирования : VirtualDubMod build 2550/release
    Видео
    Идентификатор : 0
    Формат : MPEG-4 Visual
    Профиль формата : Advanced Simple@L5
    Параметр BVOP формата : 2
    Параметр QPel формата : Нет
    Параметр GMC формата : Без точки перехода
    Параметр матрицы формата : Default (MPEG)
    Идентификатор кодека : XVID
    Идентификатор кодека/Подсказка : XviD
    Продолжительность : 1 ч. 17 м.
    Битрейт : 1700 Кбит/сек
    Ширина : 704 пикселя
    Высота : 448 пикселей
    Соотношение сторон : 16:10
    Частота кадров : 25, 000 кадров/сек
    Цветовое пространство : YUV
    Субдискретизация насыщенности : 4:2:0
    Битовая глубина : 8 бит
    Тип развёртки : Прогрессивная
    Метод сжатия : С потерями
    Бит/(Пиксели*Кадры) : 0.216
    Размер потока : 946 Мбайт (93%)
    Библиотека кодирования : XviD 1.2.1 (UTC 2008-12-04)
    Аудио
    Идентификатор : 1
    Формат : MPEG Audio
    Версия формата : Version 1
    Профиль формата : Layer 3
    Режим : Joint stereo
    Расширение режима : MS Stereo
    Идентификатор кодека : 55
    Идентификатор кодека/Подсказка : MP3
    Продолжительность : 1 ч. 17 м.
    Вид битрейта : Постоянный
    Битрейт : 128 Кбит/сек
    Каналы : 2 канала
    Частота : 48, 0 КГц
    Метод сжатия : С потерями
    Размер потока : 71, 2 Мбайт (7%)
    Выравнивание : Соединение по промежуткам
    Продолжительность промежутка : 40 мс. (1, 00 видеокадр)
    Время предзагрузки промежутка : 504 мс.
    Библиотека кодирования : LAME3.99r
    Настройки программы : -m j -V 4 -q 9 -lowpass 17 -b 128

    Скриншоты для ознакомления



    Все одноименные релизы в Клубе
    Время раздачи: 24/7. До первых 5 скачавших.

    Лучше всех (2017.10.08) SATRip (сезон 3, выпуск 4)
    загрузка...
    Рейтинг →
     (голосов: 1, оценка 5/5, голосовать можно 1 раз )

    Другие торренты по теме:

  • Н. Калинина | Наша лучше всех! (1962) [FB2]
  • Лучше всех (2016.11.06) SATRip (выпуск 1)
  • Лучше всех (2016.11.06) HDTVRip [H.264 / 720p] (выпуск 1)
  • Лучше всех (2016.11.13) SATRip (выпуск 2)
  • Лучше всех! (2016.11.13) HDTVRip [H.264 / 720p-LQ] (выпуск 2)
  • Лучше всех (2016.11.20) SATRip (выпуск 3)
  • Лучше всех! (2016.11.20) HDTVRip [H.264 / 720p-LQ] (выпуск 3)
  • Лучше всех (2016.12.04) SATRip (выпуск 4)


    • Комментарии (0):

      Информация

      Информация

        Посетители, находящиеся в группе Гости, не могут оставлять комментарии в данной новости.

        ↓ Меню




        ↓ Опрос

        Вы добавили сайт в закладки?
        Да
        Нет


        Top 10 за месяц (Передачи)