.
Авторизация | Регистрация
Хочешь лучшие торренты? Добавь свой email!
Добавить

Торрент скачать бесплатно

» » Бесогон ТВ. Либерализм. Часть 2 (26.04.2015) WEBRip [H.264 / 1080p-LQ] торрент скачать бесплатно




    Бесогон ТВ. Либерализм. Часть 2 (26.04.2015) WEBRip [H.264 / 1080p-LQ] торрент скачать бесплатно

    Опубликовал: Админ | Дата: 8-10-2017, 05:00 | Просмотров: 0

    Телекомпания: Россия 24
    Жанр: Телепередача, общественно-политическая программа
    Ведущий: Никита Михалков

    Описание

    Авторская Программа Никиты Михалкова Бесогон TV на канале Россия 24 выходит 1 или 2 раза в месяц.
    Цель этого авторского канала, - поделится мыслями и опровергнуть домыслы появляющиеся в сети и не отражающие истинного мнения автора передачи, - Никиты Михалкова о том или ином событии.
    Темы выпусков самые разные, но доминируют политика и общество.
    Продолжим разбираться в становлении либерального движения в России и постараемся сформировать образ современного российского либерализма. Что таится за свободолюбием российских либералов? Кому предназначается свобода, к которой они призывают? Попробуем найти ответы...
    Продолжительность: 00: 30: 45
    Качество видео: WEBRip
    Видео: AVC/H.264, 1920x1080 (16: 9), ~1743 Kbps
    Аудио: AAC, 2 ch, 126 Kbps

    General
    Unique ID : 200010798262272245554181855268156243968 (0x9678ADB5F03E66388B11317570848000)
    Complete name : D: \Film\Бесогон ТВ Либерализм часть 2.mkv
    Format : Matroska
    Format version : Version 4/Version 2
    File size : 412 MiB
    Duration : 30 min 46 s
    Overall bit rate : 1 872 kb/s
    Encoded date : UTC 2017-10-06 14: 14: 08
    Writing application : mkvmerge v16.0.0 (\\'Protest\\') 64-bit
    Writing library : libebml v1.3.5 + libmatroska v1.4.8
    Cover : Yes
    Attachments : cover.png
    Video
    ID : 1
    Format : AVC
    Format/Info : Advanced Video Codec
    Format profile : High@L4
    Format settings : CABAC/3 Ref Frames
    Format settings, CABAC : Yes
    Format settings, RefFrames : 3 frames
    Codec ID : V_MPEG4/ISO/AVC
    Duration : 30 min 45 s
    Bit rate : 1 743 kb/s
    Width : 1 920 pixels
    Height : 1 080 pixels
    Display aspect ratio : 16: 9
    Frame rate mode : Constant
    Frame rate : 25.000 FPS
    Color space : YUV
    Chroma subsampling : 4: 2: 0
    Bit depth : 8 bits
    Scan type : Progressive
    Bits/(Pixel*Frame) : 0.034
    Stream size : 384 MiB (93%)
    Language : Russian
    Default : Yes
    Forced : No
    Audio
    ID : 2
    Format : AAC
    Format/Info : Advanced Audio Codec
    Format profile : LC
    Codec ID : A_AAC-2
    Duration : 30 min 46 s
    Bit rate : 126 kb/s
    Channel(s) : 2 channels
    Channel positions : Front: L R
    Sampling rate : 44.1 kHz
    Frame rate : 43.066 FPS (1024 SPF)
    Compression mode : Lossy
    Stream size : 27.6 MiB (7%)
    Language : Russian
    Default : Yes
    Forced : No

    Скриншоты для ознакомления




    Все одноименные релизы в Клубе
    Время раздачи: 07: 00-23: 00 (до появления первых 3-5 скачавших)

    Бесогон ТВ. Либерализм. Часть 2 (26.04.2015) WEBRip [H.264/1080p-LQ]
    загрузка...
    Рейтинг →
     (голосов: 1, оценка 5/5, голосовать можно 1 раз )

    Другие торренты по теме:

  • Бесогон ТВ. Либерализм. Часть 1 (04.04.2015) WEBRip [H.264 / 1080p-LQ]


    • Комментарии (0):

      Информация

      Информация

        Посетители, находящиеся в группе Гости, не могут оставлять комментарии в данной новости.

        ↓ Меню




        ↓ Опрос

        Вы добавили сайт в закладки?
        Да
        Нет


        Top 10 за месяц (Передачи)