.
Авторизация | Регистрация
Хочешь лучшие торренты? Добавь свой email!
Добавить

Торрент скачать бесплатно

» » КВН-2017. Летний Кубок в Астане (2017.09.10) HDTV [H.264 / 1080i] торрент скачать бесплатно




    КВН-2017. Летний Кубок в Астане (2017.09.10) HDTV [H.264 / 1080i] торрент скачать бесплатно

    Опубликовал: Админ | Дата: 12-09-2017, 05:00 | Просмотров: 0

    Телекомпания: Первый канал HD
    Жанр: Юмор
    Ведущий: Александр Масляков
    Жюри: Юлий Гусман, Екатерина Стриженова, Байгали Серкебаев, Михаил Галустян, Сергей Светлаков, Семен Слепаков, Валдис Пельш.

    Описание

    Что такое КВН, знают, без сомнения, все. В КВН играют во всем мире, это прежде всего молодежная игра. Постоянные конкурсные задания: Визитная карточка, Разминка, Конкурс капитанов, Музыкальный конкурс, Домашнее задание. Игру команд оценивает профессиональное жюри — люди, у которых с чувством юмора все в порядке, многие из них раньше сами играли в КВН. Прикольно все это наверно придумал Уил Смит потратив достаточно времени. Среди членов жюри были Константин Эрнст, Леонид Парфенов, Юлий Гусман, Леонид Ярмольник, Валдис Пельш, Сергей Шолохов, Геннадий Хазанов и другие. Кроме самих игр проводятся ежегодные встречи: фестиваль команд КВН (с 1990 г., семь раз фестиваль проходил в г.Сочи), музыкальный фестиваль КВН, летний кубок КВН, международные товарищеские игры в КВН. Сборная КВН играет со сборными других стран. Прикольно все это наверно придумал Уил Смит потратив достаточно времени. Уже состоялись игры между сборной КВН и сборными Америки, Австралии, Израиля... Игра в КВН для многих становится профессией, а многие благодаря игре связывают жизнь с искусством. Из КВН вышли: Леонид Якубович, Михаил Марфин, Татьяна Лазарева, Олег Филимонов, Юлий Гусман и многие другие.
    Релиз от: olegka7373
    Продолжительность: 02: 13: 00
    Качество видео: HDTV
    Субтитры: Отсутствуют
    Видео: AVC, 1920x1080 (16: 9), 25.000 fps, 6 985 Kbps (0.135 bit/pixel)
    Аудио: AC-3, 48.0 KHz, 6 ch, 384 Kbps, CBR
    Аудио: MP2, 48.0 KHz, 2 ch, 192 Kbps, CBR
    Код: выделить все
    Общее
    Идентификатор : 1 (0x1)
    Полное имя : D:[1]КВНКВН-2017. Высшая лига. Летний кубок в Астане (2017.09.10)_1080.ts
    Формат : MPEG-TS
    Размер файла : 7, 40 Гбайт
    Продолжительность : 2 ч. 13 м.
    Режим общего битрейта : Переменный
    Общий поток : 7961 Кбит/сек
    Видео
    Идентификатор : 2931 (0xB73)
    Идентификатор меню : 1079 (0x437)
    Формат : AVC
    Формат/Информация : Advanced Video Codec
    Профиль формата : High@L4
    Параметр CABAC формата : Да
    Параметр ReFrames формата : 4 кадра
    Идентификатор кодека : 27
    Продолжительность : 2 ч. 13 м.
    Битрейт : 6985 Кбит/сек
    Ширина : 1920 пикселей
    Высота : 1080 пикселей
    Соотношение сторон : 16:9
    Частота кадров : 25, 000 кадров/сек
    Цветовое пространство : YUV
    Субдискретизация насыщенности : 4:2:0
    Битовая глубина : 8 бит
    Тип развёртки : MBAFF
    Порядок развёртки : Верхнее поле первое
    Бит/(Пиксели*Кадры) : 0.135
    Размер потока : 6, 49 Гбайт (88%)
    Аудио #1
    Идентификатор : 211 (0xD3)
    Идентификатор меню : 1079 (0x437)
    Формат : AC-3
    Формат/Информация : Audio Coding 3
    Расширение режима : CM (complete main)
    Параметр Endianness формата : Big
    Идентификатор кодека : 129
    Продолжительность : 2 ч. 13 м.
    Вид битрейта : Постоянный
    Битрейт : 384 Кбит/сек
    Каналы : 6 каналов
    Расположение каналов : Front: L C R, Side: L R, LFE
    Частота : 48, 0 КГц
    Битовая глубина : 16 бит
    Метод сжатия : С потерями
    Задержка видео : -120 мс.
    Размер потока : 365 Мбайт (5%)
    Язык : Russian
    Аудио #2
    Идентификатор : 212 (0xD4)
    Идентификатор меню : 1079 (0x437)
    Формат : MPEG Audio
    Версия формата : Version 1
    Профиль формата : Layer 2
    Идентификатор кодека : 3
    Продолжительность : 2 ч. 13 м.
    Вид битрейта : Постоянный
    Битрейт : 192 Кбит/сек
    Каналы : 2 канала
    Частота : 48, 0 КГц
    Метод сжатия : С потерями
    Задержка видео : -120 мс.
    Размер потока : 183 Мбайт (2%)
    Язык : Russian
    Сборная Камызякского края, Астраханская область
    Азия MIX, Бишкек
    Казахи, Астана
    Городъ Пятигорскъ, Пятигорск

    Скриншоты для ознакомления



    Все одноименные релизы в Клубе
    Время раздачи: 24/7. До первых 5 скачавших.

    КВН-2017. Летний Кубок в Астане (2017.09.10) HDTV [H.264/1080i]
    загрузка...
    Рейтинг →
     (голосов: 1, оценка 5/5, голосовать можно 1 раз )

    Другие торренты по теме:

  • КВН-2015. Высшая лига. Летний кубок в Сочи (2015.10.04) HDTVRip скачать через торрент бесплатно
  • КВН-2015. Высшая лига. Летний кубок в Сочи (2015.10.04) HDTV [H.264 / 1080i] скачать через торрент бесплатно
  • КВН-2015. Высшая лига. Летний кубок в Сочи (2015.10.04) SATRip скачать через торрент бесплатно
  • КВН-2016. Высшая лига. Летний Кубок во Владивостоке (2016.10.02) WEB-DL [H.264 / 1080p-LQ]
  • КВН-2016. Высшая лига. Летний кубок во Владивостоке (2016.10.02) WEB-DL [H.264 / 720p-LQ]
  • КВН-2016. Высшая лига. Летний Кубок во Владивостоке (2016.10.02) DVB [H.264]
  • КВН-2016. Высшая лига. Летний кубок во Владивостоке (2016.10.02) SATRip
  • КВН-2016. Высшая лига. Летний Кубок во Владивостоке (2016.10.02) HDTV [H.264 / 1080i]


    • Комментарии (0):

      Информация

      Информация

        Посетители, находящиеся в группе Гости, не могут оставлять комментарии в данной новости.

        ↓ Меню




        ↓ Опрос

        Вы добавили сайт в закладки?
        Да
        Нет


        Top 10 за месяц (Передачи)