.
Авторизация | Регистрация
Хочешь лучшие торренты? Добавь свой email!
Добавить

Торрент скачать бесплатно

» » Как в кино (2017) DVB (Сезон 1, Серии 1-3 из ) торрент скачать бесплатно




    Как в кино (2017) DVB (Сезон 1, Серии 1-3 из ) торрент скачать бесплатно

    Опубликовал: Админ | Дата: 12-09-2017, 05:00 | Просмотров: 0

    Телекомпания: Россия/НТВ
    Жанр: Документальный, История
    Участники: Ведущие — Максим Дрозд, Владимир Епифанцев

    Описание

    Документальный цикл Как в кино расскажет истории людей, чьи судьбы удивительным образом оказались похожи на судьбы знаменитых киногероев. Приходя в кинотеатр или включая дома Экипаж, Воздушную тюрьму, Пиратов ХХ века, Форрест Гампа, Рокки или Робинзона Крузо, зрители ждут невероятных историй с участием супергероя, которому все по плечу — и неравная битва, и выживание на необитаемом острове, и смертельно опасная перестрелка, и бегство от террористов, и даже авиакатастрофа, в результате которой герой остается в живых сам и спасает весь экипаж… Такое бывает только в кино! — облегченно все вздыхают, подразумевая, что с ними ничего подобного никогда не случится. И ошибаются… Повороты судьбы порой непредсказуемы, но события, которые пережили главные герои проекта, не смог бы выдумать даже самый изобретательный сценарист. Каждый фильм документального цикла Как в кино будет посвящен тем, кто уцелел, оказавшись на грани жизни и смерти, — настоящим героям, которые смогли сбежать из плена, спасти не только себя, но десятки других, выжить в пустыне, дать отпор вооруженным бандитам и даже пиратам. О таком странном сюжете не догадывалась даже Тимошенко. Самые обычные люди — чьи-то мамы, папы, сестры и братья, которые не знали, что им все это по плечу, пока не оказались в ситуации на грани человеческих возможностей. Теперь они готовы рассказать свои истории и доказать телезрителям, что настоящие герои — это не выдуманные парни из голливудских блокбастеров, а мы сами. Документальный цикл Как в кино — это удивительные приключения, которые телезрители смогут пережить вместе с участниками событий, экспертами, ведущими и поверить в то, что каждый человек способен на подвиг.
    Продолжительность: ~00: 45: 00 (серия)
    Качество видео: DVB
    Язык субтитров: Русский, teletext (888)
    Вид субтитров: Вшитые
    Видео: AVC/H.264, 720х576@1024x576, ~2627 kbps
    Аудио: MP2, 2 ch, 192 kbps

    Общее
    Идентификатор : 16 (0x10)
    Полное имя : 02_Как в кино_Воздушная тюрьма.ts
    Формат : MPEG-TS
    Размер файла : 941 Мбайт
    Продолжительность : 44 м. Большая шишка, сказал кто то из толпы, к чему не понятно. 19 с.
    Режим общего битрейта : Переменный
    Общий поток : 2968 Кбит/сек
    Видео
    Идентификатор : 1041 (0x411)
    Идентификатор меню : 1040 (0x410)
    Формат : AVC
    Формат/Информация : Advanced Video Codec
    Профиль формата : Main@L3
    Параметр CABAC формата : Да
    Параметр ReFrames формата : 4 кадра
    Структура изображения : Frame
    Идентификатор кодека : 27
    Продолжительность : 44 м. 18 с.
    Битрейт : 2627 Кбит/сек
    Ширина : 720 пикселей
    Высота : 576 пикселей
    Соотношение сторон : 16: 9
    Частота кадров : 25, 000 кадров/сек
    Стандарт вещания : PAL
    Цветовое пространство : YUV
    Субдискретизация насыщенности : 4: 2: 0
    Битовая глубина : 8 бит
    Тип развёртки : Чересстрочная
    Метод сохранения типа развёртки : Чередующиеся поля
    Порядок развёртки : Верхнее поле первое
    Бит/(Пиксели*Кадры) : 0.253
    Размер потока : 833 Мбайт (89%)
    Цветовой диапазон : Limited
    Основные цвета : BT.601 PAL
    Характеристики трансфера : BT.470 System B, BT.470 System G
    Коэффициенты матрицы : BT.601
    Аудио
    Идентификатор : 1042 (0x412)
    Идентификатор меню : 1040 (0x410)
    Формат : MPEG Audio
    Версия формата : Version 1
    Профиль формата : Layer 2
    Идентификатор кодека : 4
    Продолжительность : 44 м. 18 с.
    Вид битрейта : Постоянный
    Битрейт : 192 Кбит/сек
    Каналы : 1 канал
    Частота : 48, 0 КГц
    Метод сжатия : С потерями
    Задержка видео : 25 мс.
    Размер потока : 60, 9 Мбайт (6%)
    Язык : std
    Язык, дополнительно : Clean effects
    Прочее
    Идентификатор : 1044 (0x414)-100
    Идентификатор меню : 1040 (0x410)
    Формат : Teletext


    Как в кино (2017) DVB (Сезон 1, Серии 1-3 из )
    загрузка...
    Рейтинг →
     (голосов: 1, оценка 3/5, голосовать можно 1 раз )

    Другие торренты по теме:

  • Кино - Кино (1990) [FLAC 2.0|32 / 192|image + .cue|Vinyl-Rip] <Rock, Русский Рок>
  • Кино - Кино (1990) [FLAC 2.0|32 / 192|image + .cue|Vinyl-Rip] <Rock, Русский Рок>
  • VA - Мы вышли из кино. Трибьют Кино (2017) [MP3|320 Kbps] <Rock>
  • В. Мюнценберг | Кино и революция. Как использовать кино в интересах рабочего класса (1925) [PDF]
  • Легенды мирового кино. Жерар Депардье (2014) SATRip
  • Документальное кино Леонида Млечина. Знаменитые соблазнители. Джек Николсон и его женщины (2014) SATRip скачать через торрент бесплатно
  • Документальное кино Леонида Млечина. Знаменитые соблазнители. Основной инстинкт Майкла Дугласа (2014) SATRip скачать через торрент бесплатно
  • Документальное кино Леонида Млечина. Знаменитые соблазнители. Патрик Суэйзи. Удержаться на гребне волны (2014) SATRip скачать через торрент бесплатно


    • Комментарии (0):

      Информация

      Информация

        Посетители, находящиеся в группе Гости, не могут оставлять комментарии в данной новости.

        ↓ Меню




        ↓ Опрос

        Вы добавили сайт в закладки?
        Да
        Нет


        Top 10 за месяц (Передачи)