.
Авторизация | Регистрация
Хочешь лучшие торренты? Добавь свой email!
Добавить

Торрент скачать бесплатно

» » XX век (2017) DVB (Сезон 1, Серии 1-5 из ) торрент скачать бесплатно




    XX век (2017) DVB (Сезон 1, Серии 1-5 из ) торрент скачать бесплатно

    Опубликовал: Админ | Дата: 12-09-2017, 05:00 | Просмотров: 0

    Телекомпания: Россия/Общероссийский государственный телевизионный канал Культура
    Жанр: Документальный, История
    Участники: А. Собчак, Л.И. Самое интересное в это истории, что об этом Чак Норрис ничего не знал. Брежнев, В. Листьев, А. Бовин, Г. Сенкевич, В. Познер

    Описание

    В линейке XX век собраны лучшие программы отечественного телевидения периода расцвета. Это - встреча Нового 1963 года в передаче Голубой огонек на Шаболовке; программа 1992 года Без ретуши с участием мэра Ленинграда Анатолия Собчака, в которой он отвечает на вопросы журналистов; финал КВН-90; программа 1975 года Встреча Л.И. Брежнева с экипажем Союз-Аполлон.
    Продолжительность: ~00: 56: 00 (одна серия)
    Качество видео: DVB
    Язык субтитров: Русские, телетекст (888)
    Вид субтитров: Вшитые
    Видео: AVC/H.264, 720х576@768X576, ~2663 kb/s
    Аудио: MP2, 2 ch, 192 kb/s

    Общее
    Идентификатор : 16 (0x10)
    Полное имя : ХХ век_ КВН-90_ Финал.ts
    Формат : MPEG-TS
    Размер файла : 1, 51 Гбайт
    Продолжительность : 1 ч. 12 м.
    Режим общего битрейта : Переменный
    Общий поток : 3006 Кбит/сек
    Видео
    Идентификатор : 1061 (0x425)
    Идентификатор меню : 1060 (0x424)
    Формат : AVC
    Формат/Информация : Advanced Video Codec
    Профиль формата : Main@L3
    Параметр CABAC формата : Да
    Параметр ReFrames формата : 4 кадра
    Параметр GOP формата : M=4, N=28
    Структура изображения : Frame
    Идентификатор кодека : 27
    Продолжительность : 1 ч. 12 м.
    Битрейт : 2663 Кбит/сек
    Ширина : 720 пикселей
    Высота : 576 пикселей
    Соотношение сторон : 4: 3
    Частота кадров : 25, 000 кадров/сек
    Стандарт вещания : PAL
    Цветовое пространство : YUV
    Субдискретизация насыщенности : 4: 2: 0
    Битовая глубина : 8 бит
    Тип развёртки : Чересстрочная
    Метод сохранения типа развёртки : Чередующиеся поля
    Порядок развёртки : Верхнее поле первое
    Бит/(Пиксели*Кадры) : 0.257
    Размер потока : 1, 34 Гбайт (89%)
    Цветовой диапазон : Limited
    Основные цвета : BT.601 PAL
    Характеристики трансфера : BT.470 System B, BT.470 System G
    Коэффициенты матрицы : BT.601
    Аудио
    Идентификатор : 1062 (0x426)
    Идентификатор меню : 1060 (0x424)
    Формат : MPEG Audio
    Версия формата : Version 1
    Профиль формата : Layer 2
    Идентификатор кодека : 4
    Продолжительность : 1 ч. 12 м.
    Вид битрейта : Постоянный
    Битрейт : 192 Кбит/сек
    Каналы : 2 канала
    Частота : 48, 0 КГц
    Метод сжатия : С потерями
    Задержка видео : 113 мс.
    Размер потока : 98, 9 Мбайт (6%)
    Язык : std
    Язык, дополнительно : Clean effects
    Прочее #1
    Идентификатор : 1064 (0x428)-100
    Идентификатор меню : 1060 (0x424)
    Формат : Teletext
    Идентификатор кодека : 6
    Продолжительность : 1 ч. 12 м.
    Задержка видео : 13 мс.
    Прочее #2
    Идентификатор : 1064 (0x428)-888
    Идентификатор меню : 1060 (0x424)
    Формат : Teletext
    Идентификатор кодека : 6
    Продолжительность : 1 ч. 12 м.
    Задержка видео : 13 мс.
    Язык, дополнительно : Additional information page


    XX век (2017) DVB (Сезон 1, Серии 1-5 из )
    загрузка...
    Рейтинг →
     (голосов: 1, оценка 5/5, голосовать можно 1 раз )

    Другие торренты по теме:

  • Морские дьяволы. Северные рубежи (2017) WEBRip (1 сезон, серии 1-20 из 20)
  • Лунтик и его друзья (2013-2014) WEB-DLRip (7 сезон)(серии 390-437)
  • Робокар Поли и его друзья / Robocar Poli (2011-2012) WEB-DLRip, SATRip (1-2 сезон, серии 1-52 из 52 + 26) скачать через торрент бесплатно
  • С приветом по планетам / Вондер Тут И Там / Wander Over Yonder (2014) WEB-DLRip [720p] (1 сезон: серии 1-21 из 21) скачать через торрент бесплатно
  • За гранью / Fringe (2009) HDTV [1080i] (2 сезон, серии 1-23) скачать через торрент бесплатно
  • Halo 4: Спартанские операции (Halo 4: Spartan Ops) / (1 сезон, серии 1-10 из 10) (2012) [MP4|1280x720] <WEB-DL [H.264]>
  • Фарца (2015) HDTV [H.264 / 1080i-LQ] (1 сезон, серии 1-2 из 8) (обновляемая) скачать через торрент бесплатно
  • History Channel: Поворот-наворот / Counting Cars (2014) HDTVRip [H.264 / 720p] [3 сезон: серии 1-26 из 26] скачать через торрент бесплатно


    • Комментарии (0):

      Информация

      Информация

        Посетители, находящиеся в группе Гости, не могут оставлять комментарии в данной новости.

        ↓ Меню




        ↓ Опрос

        Вы добавили сайт в закладки?
        Да
        Нет


        Top 10 за месяц (Передачи)