.
Авторизация | Регистрация
Хочешь лучшие торренты? Добавь свой email!
Добавить

Торрент скачать бесплатно

» » Без обмана. Брат Глутамат (2017.09.11) SATRip торрент скачать бесплатно




    Без обмана. Брат Глутамат (2017.09.11) SATRip торрент скачать бесплатно

    Опубликовал: Админ | Дата: 12-09-2017, 05:00 | Просмотров: 0

    Телекомпания: ТВЦ
    Жанр: Документальный, расследование
    Производство: Россия
    Автор: Илья Рендаков

    Описание

    Это масштабное потребительское расследование, задача которого дать зрителям подробные советы, как не попасть в неприятности за собственные деньги. В центре программы оказываются самые разные товары и услуги потребительского рынка, их судят авторитетные эксперты и рядовые люди. Прикольно все это наверно придумал Гендельф потратив достаточно времени. Корреспонденты программы часто выступают в роли тайных агентов, внедряющихся на производства и в торговые точки, где находят массу увлекательного компромата. И главное – бьются за права пострадавших потребителей, выдвигая их обидчикам обоснованные претензии. Помимо массы интересных экспертиз и экспериментов, которые выявляют худшие и самые опасные товары в России, в программе всегда есть интересный рассказ о похожих проблемах в других странах и эксклюзивный экскурс в историю вопроса. Кадры уникальной кинохроники и рассказ экспертов о том, как производили те же продукты питания в советскую эпоху, всегда пользуются особым успехом у телезрителей. Селедка, хлеб, вино, оливковое масло, новая иномарка или шкаф… Обычные предметы нашего обихода могут стать героями очень увлекательного расследования с детективным началом и громкими разоблачениями.
    Продолжительность: ~ 00: 39: 55
    Качество видео: SATRip
    Субтитры: Отсутствуют
    Видео: MPEG4, XviD, 720x400 (16: 9), 25.000 fps, 1 800 Kbps (0.250 bit/pixel)
    Аудио: AC-3, 48.0 KHz, 2 ch, 128 Kbps, CBR
    Код: выделить все
    Общее
    Полное имя : D:[1]Без обманаБез обмана. Брат Глутамат (2017.09.11).avi
    Формат : AVI
    Формат/Информация : Audio Video Interleave
    Размер файла : 553 Мбайт
    Продолжительность : 39 м.
    Общий поток : 1938 Кбит/сек
    Программа кодирования : VirtualDubMod 1.5.10.3 |www.virtualdub-fr.org|| (build 2550/release)
    Библиотека кодирования : VirtualDubMod build 2550/release
    Видео
    Идентификатор : 0
    Формат : MPEG-4 Visual
    Профиль формата : Advanced Simple@L5
    Параметр BVOP формата : 2
    Параметр QPel формата : Нет
    Параметр GMC формата : Без точки перехода
    Параметр матрицы формата : Default (H.263)
    Идентификатор кодека : XVID
    Идентификатор кодека/Подсказка : XviD
    Продолжительность : 39 м.
    Битрейт : 1800 Кбит/сек
    Ширина : 720 пикселей
    Высота : 400 пикселей
    Соотношение сторон : 16:9
    Частота кадров : 25, 000 кадров/сек
    Цветовое пространство : YUV
    Субдискретизация насыщенности : 4:2:0
    Битовая глубина : 8 бит
    Тип развёртки : Прогрессивная
    Метод сжатия : С потерями
    Бит/(Пиксели*Кадры) : 0.250
    Размер потока : 514 Мбайт (93%)
    Библиотека кодирования : XviD 1.2.1 (UTC 2008-12-04)
    Аудио
    Идентификатор : 1
    Формат : AC-3
    Формат/Информация : Audio Coding 3
    Расширение режима : CM (complete main)
    Параметр Endianness формата : Big
    Идентификатор кодека : 2000
    Продолжительность : 39 м.
    Вид битрейта : Постоянный
    Битрейт : 128 Кбит/сек
    Каналы : 2 канала
    Расположение каналов : Front: L R
    Частота : 48, 0 КГц
    Битовая глубина : 16 бит
    Метод сжатия : С потерями
    Размер потока : 36, 5 Мбайт (7%)
    Выравнивание : Разделение по промежуткам
    Продолжительность промежутка : 40 мс. (1, 00 видеокадр)
    Время предзагрузки промежутка : 500 мс.
    Специалисты называют глутамат натрия наркотиком, на который подсажены миллионы граждан. Именно благодаря усилителю вкуса они не могут прожить без колбас, сосисок, чипсов, кетчупа, майонеза и целого ряда других очень вредных продуктов. Что правда в страшилках о глутамате, а что – маркетинговые войны?

    Скриншоты для ознакомления



    Все одноименные релизы в Клубе
    Время раздачи: 24/7. До первых 5 скачавших.

    Без обмана. Брат Глутамат (2017.09.11) SATRip
    загрузка...
    Рейтинг →
     (голосов: 1, оценка 5/5, голосовать можно 1 раз )

    Другие торренты по теме:

  • Без обмана. Дряхлый апельсин (2017.09.25) SATRip
  • Странное дело. Чингисхан. Два века обмана (2014.09.26) SATRip
  • Без обмана. Криминальный паштет (2014.09.23) SATRip
  • Без обмана. Медовая ловушка (2014.09.30) SATRip
  • Территория обмана / Територія обману (Сезон 3, Выпуск 1-5 из ) (2014) SATRip [UKR / RUS] [обновляемая] скачать через торрент бесплатно
  • Без обмана. Продукты на развес (2014.10.06) SATRip скачать через торрент бесплатно
  • Без обмана. Икра заморская, баклажанная (2014.10.13) SATRip
  • Без обмана. Соль земли русской (2014.10.20) SATRip скачать через торрент бесплатно


    • Комментарии (0):

      Информация

      Информация

        Посетители, находящиеся в группе Гости, не могут оставлять комментарии в данной новости.

        ↓ Меню




        ↓ Опрос

        Вы добавили сайт в закладки?
        Да
        Нет


        Top 10 за месяц (Передачи)