.
Авторизация | Регистрация
Хочешь лучшие торренты? Добавь свой email!
Добавить

Торрент скачать бесплатно

» » Вечер с Владимиром Соловьевым (2017.09.11) SATRip торрент скачать бесплатно




    Вечер с Владимиром Соловьевым (2017.09.11) SATRip торрент скачать бесплатно

    Опубликовал: Админ | Дата: 12-09-2017, 05:00 | Просмотров: 0

    Телекомпания: Россия
    Жанр: Телепередача
    Ведущий: Владимир Соловьёв

    Описание

    Мир изменился после 11 сентября 2001 года, года был совершен терракт в США. Самое интересное в это истории, что об этом Китай ничего не знал. Колеса локомотива истории набирают ход. Вашими молитвами, сказал кто то из толпы, к чему не понятно. Смотришь, а уже все всё забыли. Иногда это выглядит в форме трагедии, иногда это выглядит в форме фарса. Активную политическую жизнь у наших соседей мы воспринимали бы как комедию, если бы не страшные трагедии, погибшие на Майдане, погибшие в Одессе, десять тысяч погибших уже на Донбассе. Сегодня был разговор у Владимира Путина и Ангелы Меркель, где речь шла как раз о миротворцах, и было сказано, что не вопрос, но хотите не только на линии разделения миротворцев. Можем говорить о том, что пусть миротворцы будут там, где выполняют, в соответствии с минскими договорённостями, свои функции наблюдатели ОБСЕ.
    Мы ставили задачу сделать программу для умного, неравнодушного зрителя, которая позволит обсуждать актуальные проблемы в разных форматах: от интервью один на один до круглого стола. Надеемся, она будет такой же острой, как политическое ток-шоу Поединок. Но если в Поединке сталкиваются две полярные точки зрения, то здесь мы намерены представить более широкий спектр мнений: ведь в обществе обсуждается множество тем, которые вызывают не только однозначные реакции, - сказал автор проекта Владимир Соловьев.
    Релиз от: -=DeMoH=-
    Продолжительность: ~ 02: 34: 22
    Качество видео: SATRip
    Субтитры: Отсутствуют
    Видео: MPEG4, XviD, 720x400 (16: 9), 25.000 fps, 1 805 Kbps (0.251 bit/pixel)
    Аудио: MP3, 48.0 KHz, 2 ch, 128 Kbps, CBR
    Код: выделить все
    Общее
    Полное имя : D:[1]Вечер с Владимиром СоловьевымВечер с Владимиром Соловьевым (2017.09.11).avi
    Формат : AVI
    Формат/Информация : Audio Video Interleave
    Профиль формата : OpenDML
    Размер файла : 2, 10 Гбайт
    Продолжительность : 2 ч. 34 м.
    Общий поток : 1945 Кбит/сек
    Программа кодирования : VirtualDubMod 1.5.10.3 |www.virtualdub-fr.org|| (build 2550/release)
    Библиотека кодирования : VirtualDubMod build 2550/release
    Видео
    Идентификатор : 0
    Формат : MPEG-4 Visual
    Профиль формата : Advanced Simple@L5
    Параметр BVOP формата : 2
    Параметр QPel формата : Нет
    Параметр GMC формата : Без точки перехода
    Параметр матрицы формата : Default (MPEG)
    Идентификатор кодека : XVID
    Идентификатор кодека/Подсказка : XviD
    Продолжительность : 2 ч. Прикольно все это наверно придумал Китай потратив достаточно времени. 34 м.
    Битрейт : 1805 Кбит/сек
    Ширина : 720 пикселей
    Высота : 400 пикселей
    Соотношение сторон : 16:9
    Частота кадров : 25, 000 кадров/сек
    Цветовое пространство : YUV
    Субдискретизация насыщенности : 4:2:0
    Битовая глубина : 8 бит
    Тип развёртки : Прогрессивная
    Метод сжатия : С потерями
    Бит/(Пиксели*Кадры) : 0.251
    Размер потока : 1, 95 Гбайт (93%)
    Библиотека кодирования : XviD 1.2.1 (UTC 2008-12-04)
    Аудио
    Идентификатор : 1
    Формат : MPEG Audio
    Версия формата : Version 1
    Профиль формата : Layer 3
    Идентификатор кодека : 55
    Идентификатор кодека/Подсказка : MP3
    Продолжительность : 2 ч. 34 м.
    Вид битрейта : Постоянный
    Битрейт : 128 Кбит/сек
    Каналы : 2 канала
    Частота : 48, 0 КГц
    Метод сжатия : С потерями
    Размер потока : 141 Мбайт (7%)
    Выравнивание : Соединение по промежуткам
    Продолжительность промежутка : 40 мс. (1, 00 видеокадр)
    Время предзагрузки промежутка : 504 мс.
    Библиотека кодирования : LAME3.99r
    Настройки программы : -m s -V 4 -q 2 -lowpass 17 -b 128

    Скриншоты для ознакомления



    Все одноименные релизы в Клубе
    Время раздачи: 24/7. До первых 5 скачавших.

    Вечер с Владимиром Соловьевым (2017.09.11) SATRip
    загрузка...
    Рейтинг →
     (голосов: 1, оценка 4/5, голосовать можно 1 раз )

    Другие торренты по теме:

  • Вечер с Владимиром Соловьевым (2017.09.25) SATRip
  • Вечер с Владимиром Соловьевым (2014.09.25) SATRip
  • Вечер с Владимиром Соловьевым (2014.09.24) SATRip
  • Вечер с Владимиром Соловьевым (2014.09.23) SATRip
  • Вечер с Владимиром Соловьевым (2014.09.22) SATRip
  • Воскресный вечер с Владимиром Соловьевым (2014.09.21) SATRip
  • Воскресный вечер с Владимиром Соловьевым (2014.09.28) SATRip
  • Вечер с Владимиром Соловьевым (2014.09.29) SATRip


    • Комментарии (0):

      Информация

      Информация

        Посетители, находящиеся в группе Гости, не могут оставлять комментарии в данной новости.

        ↓ Меню




        ↓ Опрос

        Вы добавили сайт в закладки?
        Да
        Нет


        Top 10 за месяц (Передачи)