.
Авторизация | Регистрация
Хочешь лучшие торренты? Добавь свой email!
Добавить

Торрент скачать бесплатно

» » Волейбол. Чемпионат Европы 2017. Мужчины. Финал. Германия – Россия (03.09.2017) IPTVRip [H.264 / 1080p-LQ] торрент скачать бесплатно




    Волейбол. Чемпионат Европы 2017. Мужчины. Финал. Германия – Россия (03.09.2017) IPTVRip [H.264 / 1080p-LQ] торрент скачать бесплатно

    Опубликовал: Админ | Дата: 11-09-2017, 05:00 | Просмотров: 0

    Телекомпания: Матч! Игра HD
    Жанр: Спорт
    Комментаторы: Александр Аксёнов, Владимир Стецко

    Описание
    03 сентября 2017 года, воскресенье. 21: 30 МСК
    30-й Чемпионат Европы по волейболу среди мужчин 2017
    Финал
    Германия – Россия
    Стадион: Арена Краков (Краков, Польша), 10592 зрителя (69 % при вместимости 15328)
    Судьи: Войцех Марошек (Польша), Горан Градински (Сербия)
    Продолжительность: 02: 33: 40
    Качество видео: IPTVRip
    Язык озвучки: Русский
    Субтитры: отсутствуют
    Видео: AVC/H.264, 1920x1080 (16: 9), ~5991 Kbps
    Аудио: AAC, 2 ch, 48 kHz, ~128 Kbps

    Общее
    Уникальный идентификатор : 174873797357452837461228232106549818446 (0x838F77E1534BDED296EBEE1CA171B44E)
    Полное имя : F: SPORTВолейбол2017 Men\'s European Volleyball Championship(03.09.2017)_Volleyball.Mens EuroCh 2017.Final. Germany – Russia_1080p.mkv
    Формат : Matroska
    Версия формата : Version 4/Version 2
    Размер файла : 6, 57 Гбайт
    Продолжительность : 2 ч. 33 м.
    Общий поток : 6119 Кбит/сек
    Дата кодирования : UTC 2017-09-04 20: 45: 51
    Программа кодирования : mkvmerge v15.0.0 (\'Duel with the Devil\') 32-bit
    Библиотека кодирования : libebml v1.3.5 + libmatroska v1.4.5/Lavf54.63.104
    Видео
    Идентификатор : 1
    Формат : AVC
    Формат/Информация : Advanced Video Codec
    Профиль формата : Main@L4.1
    Параметр CABAC формата : Нет
    Параметр RefFrames формата : 1 кадр
    Идентификатор кодека : V_MPEG4/ISO/AVC
    Продолжительность : 2 ч. 33 м.
    Битрейт : 5991 Кбит/сек
    Ширина : 1920 пикселей
    Высота : 1080 пикселей
    Соотношение сторон : 16: 9
    Режим частоты кадров : Постоянный
    Частота кадров : 25, 000 кадров/сек
    Цветовое пространство : YUV
    Субдискретизация насыщенности : 4: 2: 0
    Битовая глубина : 8 бит
    Тип развёртки : Прогрессивная
    Бит/(Пиксели*Кадры) : 0.116
    Размер потока : 6, 43 Гбайт (98%)
    Default : Да
    Forced : Нет
    Аудио
    Идентификатор : 2
    Формат : AAC
    Формат/Информация : Advanced Audio Codec
    Профиль формата : LC
    Идентификатор кодека : A_AAC
    Продолжительность : 2 ч. 33 м.
    Битрейт : 125 Кбит/сек
    Каналы : 2 канала
    Расположение каналов : Front: L R
    Частота : 48, 0 КГц
    Частота кадров : 46, 875 кадров/сек (1024 SPF)
    Метод сжатия : С потерями
    Размер потока : 138 Мбайт (2%)
    Язык : Russian
    Default : Да
    Forced : Нет

    Скриншоты для ознакомления



    Все одноименные релизы в Клубе
    Время раздачи: 24/7 (около 1 месяца)

    Волейбол. Чемпионат Европы 2017. Мужчины. Финал. Германия – Россия (03.09.2017) IPTVRip [H.264/1080p-LQ]
    загрузка...
    Рейтинг →
     (голосов: 1, оценка 3/5, голосовать можно 1 раз )

    Другие торренты по теме:

  • Волейбол. Чемпионат мира среди клубов 2017. Женщины. Группа A. 1-й тур. Хисамицу Спрингс (Япония) — Рексона-Сеск (Бразилия) (09.05.2017) WEB-DL [H.264 / 1080p-LQ]
  • Волейбол. Чемпионат мира среди клубов 2017. Женщины. Группа B. 1-й тур. НЕК Ред Рокетс (Япония) — Волей Нестле (Бразилия) (09.05.2017) WEB-DL [H.264 / 1080p-LQ] [JP]
  • Волейбол. Чемпионат мира среди клубов 2017. Женщины. Группа B. 1-й тур. Волеро (Швейцария) - Эджзаджибаши (Турция) (09.05.2017) WEB-DL [H.264 / 1080p-LQ] [JP]
  • Волейбол. Чемпионат мира среди клубов 2017. Женщины. Группа A. 1-й тур. Динамо (Россия) — ВакифБанк (Турция) (09.05.2017) WEB-DL [H.264 / 1080p-LQ]
  • Волейбол. Чемпионат мира среди клубов 2017. Женщины. Группа A. 2-й тур. Хисамицу Спрингс (Япония) — Динамо (Россия) (10.05.2017) HDTVRip [H.264 / 720p-LQ] [hand made 50fps]
  • Волейбол. Чемпионат мира среди клубов 2017. Женщины. Группа B. 2-й тур. НЕК Ред Рокетс (Япония) — Волеро (Швейцария) (10.05.2017) WEB-DL [H.264 / 1080p-LQ]
  • Волейбол. Чемпионат мира среди клубов 2017. Женщины. Группа A. 2-й тур. Рексона-Сеск (Бразилия) — ВакифБанк (Турция) (10.05.2017) WEB-DL [H.264 / 1080p-LQ]
  • Волейбол. Чемпионат мира среди клубов 2017. Женщины. Группа B. 2-й тур. Волей Нестле (Бразилия) — Эджзаджибаши ВитрА (Турция) (10.05.2017) WEB-DL [H.264 / 1080p-LQ]


    • Комментарии (0):

      Информация

      Информация

        Посетители, находящиеся в группе Гости, не могут оставлять комментарии в данной новости.

        ↓ Меню




        ↓ Опрос

        Вы добавили сайт в закладки?
        Да
        Нет


        Top 10 за месяц (Передачи)

        Павел Гуров | Цикл курсов Маркетинг в соц. сетях для фотографа (2016) CamRip [H.264 / 1080p]

        (скачиваний: 7)
        Школа готовит прислугу! (2016) WEB-DLRip [H.264 / 1080i-LQ]

        (скачиваний: 6)
        Айрэн По, Джули По | Нумерология, как профессия. Мы из матрицы. Книга 1 (2016) [DJVU]

        (скачиваний: 5)
        Вести в субботу с Сергеем Брилевым (22.10.2016) SATRip

        (скачиваний: 5)
        Алексей Кузьмичев | Магия цвета. Курс по цветокоррекции в Adobe Photoshop (2016) PCRec [H.264]

        (скачиваний: 4)
        Франциска Вудворт | Дыхание жизни (2017) [FB2]

        (скачиваний: 4)
        Рыбалка с Алексеем Фадеевым. Весенний карп (2014) WEBRip скачать через торрент бесплатно

        (скачиваний: 4)
        Мое Советское Детство. Моя Советская Юность (2014-2015) TVRip [H.264] (части 1-2 из 2)

        (скачиваний: 3)
        Мастерская «Фантом Уоркс» / FantomWorks (2014) HDTVRip [Rus] [AVC / 1080i] (сезон 2, серии 1-6 из 7)

        (скачиваний: 3)
        Футбол. РФПЛ Чемпионат России 2017-2018. 1-й тур. Анжи (Махачкала) — ЦСКА (Москва) (15.07.2017) WEB-DL [H.264 / 720p-LQ]

        (скачиваний: 3)