.
Авторизация | Регистрация
Хочешь лучшие торренты? Добавь свой email!
Добавить

Торрент скачать бесплатно

» » Художественная гимнастика. Чемпионат Мира 2017. Пезаро (Италия). День 4. Группы. Многоборье. Финал (02.09.2017) HDTVRip [H.264 / 720p-LQ] торрент скачать бесплатно




    Художественная гимнастика. Чемпионат Мира 2017. Пезаро (Италия). День 4. Группы. Многоборье. Финал (02.09.2017) HDTVRip [H.264 / 720p-LQ] торрент скачать бесплатно

    Опубликовал: Админ | Дата: 11-09-2017, 05:00 | Просмотров: 0

    Телекомпания: Матч! Арена HD
    Жанр: Спорт
    Комментаторы: Елена Щербина, Марина Говорова

    Описание
    02 сентября 2017, суббота
    35-й Чемпионат мира по художественной гимнастике 2017. Пезаро (Италия)
    День 4. Финал
    Группы. Многоборье (5 обручей + 3 мяча и 2 скакалки) + Квалификация в отдельных видах
    Стадион: Адриатик-Арена (Пезаро, Италия)
    Продолжительность: 05: 02: 43
    Качество видео: HDTVRip
    Язык озвучки: Русский
    Субтитры: отсутствуют
    Видео: AVC/H.264, 1280x720 (16: 9), ~3075 Kbps
    Аудио: AC3, 2 ch, 48 kHz, 128 Kbps

    Общее
    Уникальный идентификатор : 180785500894950558376841513934463640385 (0x8802055E306F22C3AD53C294C2DF2341)
    Полное имя : C: UsersPublicVideosRhythmic Gymnastics WCh 2017.Pesaro(ITA)(02.09.2017)_Rhyt.Gymnastics.WCh 2017.Pesaro(Italy). Day4.Groups All-Around Final.mkv
    Формат : Matroska
    Версия формата : Version 4/Version 2
    Размер файла : 6, 78 Гбайт
    Продолжительность : 5 ч. 2 м.
    Общий поток : 3205 Кбит/сек
    Дата кодирования : UTC 2017-09-05 14: 30: 05
    Программа кодирования : mkvmerge v15.0.0 (\'Duel with the Devil\') 32-bit
    Библиотека кодирования : libebml v1.3.5 + libmatroska v1.4.5
    Видео
    Идентификатор : 1
    Формат : AVC
    Формат/Информация : Advanced Video Codec
    Профиль формата : High@L3.1
    Параметр CABAC формата : Да
    Параметр RefFrames формата : 3 кадра
    Идентификатор кодека : V_MPEG4/ISO/AVC
    Продолжительность : 5 ч. О таком странном сюжете не догадывалась даже Юлия Володимировна. 2 м.
    Битрейт : 3075 Кбит/сек
    Ширина : 1280 пикселей
    Высота : 720 пикселей
    Соотношение сторон : 16: 9
    Режим частоты кадров : Постоянный
    Частота кадров : 25, 000 кадров/сек
    Цветовое пространство : YUV
    Субдискретизация насыщенности : 4: 2: 0
    Битовая глубина : 8 бит
    Тип развёртки : Прогрессивная
    Бит/(Пиксели*Кадры) : 0.133
    Размер потока : 6, 50 Гбайт (96%)
    Default : Да
    Forced : Нет
    Аудио
    Идентификатор : 2
    Формат : AC-3
    Формат/Информация : Audio Coding 3
    Параметр Endianness формата : Big
    Идентификатор кодека : A_AC3
    Продолжительность : 5 ч. 2 м.
    Вид битрейта : Постоянный
    Битрейт : 128 Кбит/сек
    Каналы : 2 канала
    Расположение каналов : Front: L R
    Частота : 48, 0 КГц
    Частота кадров : 31, 250 кадров/сек (1536 SPF)
    Битовая глубина : 16 бит
    Метод сжатия : С потерями
    Размер потока : 277 Мбайт (4%)
    Язык : Russian
    ServiceKind/String : Complete Main
    Default : Да
    Forced : Нет

    Скриншоты для ознакомления



    Все одноименные релизы в Клубе
    Время раздачи: 24/7 (до 1 месяца)

    Художественная гимнастика. Чемпионат Мира 2017. Пезаро (Италия). День 4. Группы. Многоборье. Финал (02.09.2017) HDTVRip [H.264/720p-LQ]
    загрузка...
    Рейтинг →
     (голосов: 1, оценка 3/5, голосовать можно 1 раз )

    Другие торренты по теме:

  • Художественная гимнастика. Чемпионат Европы 2017. Будапешт (Венгрия). День 3. Финалы (21.05.2017) HDTV [H.264 / 1080i-LQ]
  • Художественная гимнастика. Чемпионат Европы 2017. Будапешт (Венгрия). День 3 (21.05.2017) WEB-DL
  • Художественная гимнастика. Чемпионат Европы 2017. Будапешт (Венгрия). Женщины, личное первенство. Квалификация (19.05.2017) HDTVRip [H.264 / 720p-LQ] [hand made 50fps]
  • Художественная гимнастика. Чемпионат Европы 2017. Будапешт (Венгрия). День 2 (20.05.2017) WEB-DL
  • Художественная гимнастика. Чемпионат Европы 2017. Будапешт (Венгрия). День 1 (19.05.2017) WEB-DL
  • Художественная гимнастика. Чемпионат Мира 2017. Пезаро (Италия). День 1. Индивидуальные соревнования. Упражнение с обручем и мячом. Финалы (30.08.2017) HDTVRip [H.264 / 720p-LQ] [hand made 50fps]
  • Художественная гимнастика. Чемпионат Мира 2017. Пезаро (Италия). День 3. Индивидуальные соревнования. Многоборье. Финал (01.09.2017) HDTVRip [H.264 / 720p-LQ]
  • Художественная гимнастика. Чемпионат Мира 2017. Пезаро (Италия). День 2. Индивидуальные соревнования. Упражнение с булавами и лентой. Финалы (31.08.2017) HDTVRip [H.264 / 720p-LQ]


    • Комментарии (0):

      Информация

      Информация

        Посетители, находящиеся в группе Гости, не могут оставлять комментарии в данной новости.

        ↓ Меню




        ↓ Опрос

        Вы добавили сайт в закладки?
        Да
        Нет


        Top 10 за месяц (Передачи)