.
Авторизация | Регистрация
Хочешь лучшие торренты? Добавь свой email!
Добавить

Торрент скачать бесплатно

» » Художественная гимнастика. Чемпионат Мира 2017. Пезаро (Италия). День 5. Гала-представление. Церемония закрытия (03.09.2017) HDTVRip [H.264 / 720p-LQ] [hand made 50fps] торрент скачать бесплатно




    Художественная гимнастика. Чемпионат Мира 2017. Пезаро (Италия). День 5. Гала-представление. Церемония закрытия (03.09.2017) HDTVRip [H.264 / 720p-LQ] [hand made 50fps] торрент скачать бесплатно

    Опубликовал: Админ | Дата: 11-09-2017, 05:00 | Просмотров: 0

    Телекомпания: Матч! Арена HD
    Жанр: Церемония, Спорт
    Комментаторы: Елена Щербина, Марина Говорова

    Описание
    03 сентября 2017, воскресенье
    35-й Чемпионат мира по художественной гимнастике 2017. Пезаро (Италия)
    День 5.
    Гала-представление. Церемония закрытия
    Стадион: Адриатик-Арена (Пезаро, Италия)
    Продолжительность: 01: 30: 11
    Качество видео: HDTVRip
    Язык озвучки: Русский
    Субтитры: отсутствуют
    Видео: AVC/H.264, 1280x720 (16: 9), ~4033 Kbps, 50 fps
    Аудио: AC3, 2 ch, 48 kHz, 128 Kbps

    Общее
    Уникальный идентификатор : 179648071234062668755997079100124249682 (0x8726F5C184C1E8A1B83A19010B4B3E52)
    Полное имя : C: UsersPublicVideosRhythmic Gymnastics WCh 2017.Pesaro(ITA)(03.09.2017)_Rhyt.Gymnastics.WCh 2017.Pesaro(Italy). Day 5. Closing Ceremony.mkv
    Формат : Matroska
    Версия формата : Version 4/Version 2
    Размер файла : 2, 62 Гбайт
    Продолжительность : 1 ч. 30 м.
    Общий поток : 4164 Кбит/сек
    Дата кодирования : UTC 2017-09-05 18: 41: 39
    Программа кодирования : mkvmerge v15.0.0 (\'Duel with the Devil\') 32-bit
    Библиотека кодирования : libebml v1.3.5 + libmatroska v1.4.5
    Видео
    Идентификатор : 1
    Формат : AVC
    Формат/Информация : Advanced Video Codec
    Профиль формата : High@L3.2
    Параметр CABAC формата : Да
    Параметр RefFrames формата : 4 кадра
    Идентификатор кодека : V_MPEG4/ISO/AVC
    Продолжительность : 1 ч. 30 м.
    Битрейт : 4033 Кбит/сек
    Ширина : 1280 пикселей
    Высота : 720 пикселей
    Соотношение сторон : 16: 9
    Режим частоты кадров : Постоянный
    Частота кадров : 50, 000 кадров/сек
    Цветовое пространство : YUV
    Субдискретизация насыщенности : 4: 2: 0
    Битовая глубина : 8 бит
    Тип развёртки : Прогрессивная
    Бит/(Пиксели*Кадры) : 0.088
    Размер потока : 2, 54 Гбайт (97%)
    Default : Да
    Forced : Нет
    Аудио
    Идентификатор : 2
    Формат : AC-3
    Формат/Информация : Audio Coding 3
    Параметр Endianness формата : Big
    Идентификатор кодека : A_AC3
    Продолжительность : 1 ч. 30 м.
    Вид битрейта : Постоянный
    Битрейт : 128 Кбит/сек
    Каналы : 2 канала
    Расположение каналов : Front: L R
    Частота : 48, 0 КГц
    Частота кадров : 31, 250 кадров/сек (1536 SPF)
    Битовая глубина : 16 бит
    Метод сжатия : С потерями
    Размер потока : 82, 6 Мбайт (3%)
    Язык : Russian
    ServiceKind/String : Complete Main
    Default : Да
    Forced : Нет

    Скриншоты для ознакомления



    Все одноименные релизы в Клубе
    Время раздачи: 24/7 (до 1 месяца)

    Художественная гимнастика. Чемпионат Мира 2017. Пезаро (Италия). День 5. Гала-представление. Церемония закрытия (03.09.2017) HDTVRip [H.264/720p-LQ] [hand made 50fps]
    загрузка...
    Рейтинг →
     (голосов: 1, оценка 4/5, голосовать можно 1 раз )

    Другие торренты по теме:

  • Художественная гимнастика. Чемпионат Европы 2017. Будапешт (Венгрия). День 3. Финалы (21.05.2017) HDTV [H.264 / 1080i-LQ]
  • Художественная гимнастика. Чемпионат Европы 2017. Будапешт (Венгрия). День 3 (21.05.2017) WEB-DL
  • Художественная гимнастика. Чемпионат Европы 2017. Будапешт (Венгрия). Женщины, личное первенство. Квалификация (19.05.2017) HDTVRip [H.264 / 720p-LQ] [hand made 50fps]
  • Художественная гимнастика. Чемпионат Европы 2017. Будапешт (Венгрия). День 2 (20.05.2017) WEB-DL
  • Художественная гимнастика. Чемпионат Европы 2017. Будапешт (Венгрия). День 1 (19.05.2017) WEB-DL
  • Художественная гимнастика. Чемпионат Мира 2017. Пезаро (Италия). День 1. Индивидуальные соревнования. Упражнение с обручем и мячом. Финалы (30.08.2017) HDTVRip [H.264 / 720p-LQ] [hand made 50fps]
  • Художественная гимнастика. Чемпионат Мира 2017. Пезаро (Италия). День 3. Индивидуальные соревнования. Многоборье. Финал (01.09.2017) HDTVRip [H.264 / 720p-LQ]
  • Художественная гимнастика. Чемпионат Мира 2017. Пезаро (Италия). День 2. Индивидуальные соревнования. Упражнение с булавами и лентой. Финалы (31.08.2017) HDTVRip [H.264 / 720p-LQ]


    • Комментарии (0):

      Информация

      Информация

        Посетители, находящиеся в группе Гости, не могут оставлять комментарии в данной новости.

        ↓ Меню




        ↓ Опрос

        Вы добавили сайт в закладки?
        Да
        Нет


        Top 10 за месяц (Передачи)

        Павел Гуров | Цикл курсов Маркетинг в соц. сетях для фотографа (2016) CamRip [H.264 / 1080p]

        (скачиваний: 7)
        Школа готовит прислугу! (2016) WEB-DLRip [H.264 / 1080i-LQ]

        (скачиваний: 6)
        Айрэн По, Джули По | Нумерология, как профессия. Мы из матрицы. Книга 1 (2016) [DJVU]

        (скачиваний: 5)
        Вести в субботу с Сергеем Брилевым (22.10.2016) SATRip

        (скачиваний: 5)
        Алексей Кузьмичев | Магия цвета. Курс по цветокоррекции в Adobe Photoshop (2016) PCRec [H.264]

        (скачиваний: 4)
        Франциска Вудворт | Дыхание жизни (2017) [FB2]

        (скачиваний: 4)
        Рыбалка с Алексеем Фадеевым. Весенний карп (2014) WEBRip скачать через торрент бесплатно

        (скачиваний: 4)
        Мое Советское Детство. Моя Советская Юность (2014-2015) TVRip [H.264] (части 1-2 из 2)

        (скачиваний: 3)
        Мастерская «Фантом Уоркс» / FantomWorks (2014) HDTVRip [Rus] [AVC / 1080i] (сезон 2, серии 1-6 из 7)

        (скачиваний: 3)
        Футбол. РФПЛ Чемпионат России 2017-2018. 1-й тур. Анжи (Махачкала) — ЦСКА (Москва) (15.07.2017) WEB-DL [H.264 / 720p-LQ]

        (скачиваний: 3)