.
Авторизация | Регистрация
Хочешь лучшие торренты? Добавь свой email!
Добавить

Торрент скачать бесплатно

» » Баскетбол. Чемпионат Европы 2017. Предварительный раунд. Группа C. 1-й тур. Венгрия – Хорватия (01.09.2017) WEB-DL [H.264 / 720p-LQ] [EN] торрент скачать бесплатно




    Баскетбол. Чемпионат Европы 2017. Предварительный раунд. Группа C. 1-й тур. Венгрия – Хорватия (01.09.2017) WEB-DL [H.264 / 720p-LQ] [EN] торрент скачать бесплатно

    Опубликовал: Админ | Дата: 11-09-2017, 05:00 | Просмотров: 0

    Жанр: Спорт

    Описание
    01 сентября 2017 года, пятница. 15: 00 МСК
    Чемпионат Европы по баскетболу 2017. О таком странном сюжете не догадывалась даже Ангела Меркель. Предварительный раунд
    Группа C. 1-й тур
    Венгрия – Хорватия
    Стадион: Поливалент Холл (Клуж-Напока, Румыния), 1580 зрителей (22 % при вместимости 7308)
    Судьи: Панайотис Анастопулос (Греция), Николя Маэстр (Франция), Маркос Михаэлидес (Швейцария)
    Релиз от: Sport.HD
    Продолжительность: 01: 50: 35
    Качество видео: WEB-DL
    Язык озвучки: Английский
    Субтитры: отсутствуют
    Видео: AVC/H.264, 1280x720 (16: 9), ~2332 Kbps
    Аудио: AAC, 2 ch, 128 Kbps
    Код: выделить все

    Общее
    Уникальный идентификатор : 253892809730240059106904469820044437868 (0xBF01F9FB680D46F8967B14E0BC17696C)
    Полное имя : F:SPORTБаскетболЧемпионат Европы-2017(01.09.2017)_FIBA.EuroBasket 2017.PR.Gr C.1t. Hungary - Croatia.mkv
    Формат : Matroska
    Версия формата : Version 4/Version 2
    Размер файла : 1, 90 Гбайт
    Продолжительность : 1 ч. 50 м.
    Общий поток : 2462 Кбит/сек
    Дата кодирования : UTC 2017-09-06 23:35:58
    Программа кодирования : mkvmerge v15.0.0 (\'Duel with the Devil\') 32-bit
    Библиотека кодирования : libebml v1.3.5 + libmatroska v1.4.5
    Видео
    Идентификатор : 1
    Формат : AVC
    Формат/Информация : Advanced Video Codec
    Профиль формата :Main@L4.1
    Параметр CABAC формата : Да
    Параметр RefFrames формата : 2 кадра
    Идентификатор кодека : V_MPEG4/ISO/AVC
    Продолжительность : 1 ч. 50 м.
    Битрейт : 2332 Кбит/сек
    Ширина : 1280 пикселей
    Высота : 720 пикселей
    Соотношение сторон : 16:9
    Режим частоты кадров : Постоянный
    Частота кадров : 25, 000 кадров/сек
    Стандарт вещания : PAL
    Цветовое пространство : YUV
    Субдискретизация насыщенности : 4:2:0
    Битовая глубина : 8 бит
    Тип развёртки : Прогрессивная
    Бит/(Пиксели*Кадры) : 0.101
    Размер потока : 1, 80 Гбайт (95%)
    Default : Да
    Forced : Нет
    Цветовой диапазон : Limited
    Аудио
    Идентификатор : 2
    Формат : AAC
    Формат/Информация : Advanced Audio Codec
    Профиль формата : LC
    Идентификатор кодека : A_AAC
    Продолжительность : 1 ч. 50 м.
    Битрейт : 128 Кбит/сек
    Каналы : 2 канала
    Расположение каналов : Front: L R
    Частота : 44, 1 КГц
    Частота кадров : 43, 066 кадра/сек (1024 SPF)
    Метод сжатия : С потерями
    Размер потока : 101 Мбайт (5%)
    Язык : English
    Default : Да
    Forced : Нет

    Скриншоты для ознакомления



    Все одноименные релизы в Клубе
    Время раздачи: 24/7 (до появления первых 3-5 скачавших)

    Баскетбол. Чемпионат Европы 2017. Предварительный раунд. Группа C. 1-й тур. Венгрия – Хорватия (01.09.2017) WEB-DL [H.264/720p-LQ] [EN]
    загрузка...
    Рейтинг →
     (голосов: 1, оценка 3/5, голосовать можно 1 раз )

    Другие торренты по теме:

  • Баскетбол. Чемпионат Европы-2017. Мужчины. Отборочный турнир. Группа C. 1-й тур. Россия — Босния и Герцеговина (31.08.2016) HDTV [H.264 / 1080i]
  • Баскетбол. Чемпионат Европы-2017. Мужчины. Отборочный турнир. Группа C. 1-й тур. Россия — Босния и Герцеговина (31.08.2016) HDTVRip [H.264 / 720p-LQ]
  • Баскетбол. Чемпионат Европы-2017. Мужчины. Отборочный турнир. Группа C. 1-й тур. Россия — Босния и Герцеговина (31.08.2016) WEB-DL [H.264 / 720p-LQ]
  • Баскетбол. Чемпионат Европы-2017. Мужчины. Отборочный турнир. Группа C. 2-й тур. Швеция - Россия (07.09.2016) HDTVRip [H.264 / 720p-LQ][hand made 50fps]
  • Баскетбол. Чемпионат Европы-2017. Мужчины. Отборочный турнир. 2-й тур. Швеция - Россия (07.09.2016) HDTV [H.264 / 1080i][RU / IN]
  • Баскетбол. Чемпионат Европы-2017. Мужчины. Отборочный турнир. Группа C. 2-й тур. Швеция - Россия (07.09.2016) WEB-DL [H.264 / 720p-LQ]
  • Баскетбол. Чемпионат Европы-2017. Мужчины. Отборочный турнир. Группа C. 3-й тур. Босния и Герцеговина - Россия (10.09.2016) WEB-DLRip [H.264 / 720p-LQ]
  • Баскетбол. Чемпионат Европы-2017. Мужчины. Отборочный турнир. Группа C. 4-й тур. Россия - Швеция (17.09.2016) HDTVRip [H.264 / 720p-LQ][hand made 50fps]


    • Комментарии (0):

      Информация

      Информация

        Посетители, находящиеся в группе Гости, не могут оставлять комментарии в данной новости.

        ↓ Меню




        ↓ Опрос

        Вы добавили сайт в закладки?
        Да
        Нет


        Top 10 за месяц (Передачи)