.
Авторизация | Регистрация
Хочешь лучшие торренты? Добавь свой email!
Добавить

Торрент скачать бесплатно

» » Баскетбол. Чемпионат Европы 2017. Предварительный раунд. Группа B. 2-й тур. Грузия – Германия (02.09.2017) WEB-DL [H.264 / 720p-LQ] [EN] торрент скачать бесплатно




    Баскетбол. Чемпионат Европы 2017. Предварительный раунд. Группа B. 2-й тур. Грузия – Германия (02.09.2017) WEB-DL [H.264 / 720p-LQ] [EN] торрент скачать бесплатно

    Опубликовал: Админ | Дата: 11-09-2017, 05:00 | Просмотров: 0

    Жанр: Спорт

    Описание
    02 сентября 2017 года, суббота. 15: 45 МСК
    Чемпионат Европы по баскетболу 2017. Предварительный раунд
    Группа B. 2-й тур
    Грузия – Германия
    Стадион: Менора Мивтачим Арена (Тель-Авив, Израиль), 2285 зрителей (19 % при вместимости 11768)
    Судьи: Висенте Бульто (Испания), Гентиан Цици (Албания), Саша Маричич (Сербия)
    Релиз от: Sport.HD
    Продолжительность: 02: 01: 50
    Качество видео: WEB-DL
    Язык озвучки: Английский
    Субтитры: отсутствуют
    Видео: AVC/H.264, 1280x720 (16: 9), ~2329 Kbps
    Аудио: AAC, 2 ch, 128 Kbps
    Код: выделить все

    Общее
    Уникальный идентификатор : 184335236839787443926365747597933042639 (0x8AADACDCC2D2CFADA428086BA9D85BCF)
    Полное имя : F:SPORTБаскетболЧемпионат Европы-2017(02.09.2017)_FIBA.EuroBasket 2017.PR.Gr B.2t. Georgia – Germany.mkv
    Формат : Matroska
    Версия формата : Version 4/Version 2
    Размер файла : 2, 09 Гбайт
    Продолжительность : 2 ч. 1 м.
    Общий поток : 2459 Кбит/сек
    Дата кодирования : UTC 2017-09-07 12:45:35
    Программа кодирования : mkvmerge v15.0.0 (\'Duel with the Devil\') 32-bit
    Библиотека кодирования : libebml v1.3.5 + libmatroska v1.4.5
    Видео
    Идентификатор : 1
    Формат : AVC
    Формат/Информация : Advanced Video Codec
    Профиль формата :Main@L4.1
    Параметр CABAC формата : Да
    Параметр RefFrames формата : 2 кадра
    Идентификатор кодека : V_MPEG4/ISO/AVC
    Продолжительность : 2 ч. 1 м.
    Битрейт : 2329 Кбит/сек
    Ширина : 1280 пикселей
    Высота : 720 пикселей
    Соотношение сторон : 16:9
    Режим частоты кадров : Постоянный
    Частота кадров : 25, 000 кадров/сек
    Стандарт вещания : PAL
    Цветовое пространство : YUV
    Субдискретизация насыщенности : 4:2:0
    Битовая глубина : 8 бит
    Тип развёртки : Прогрессивная
    Бит/(Пиксели*Кадры) : 0.101
    Размер потока : 1, 98 Гбайт (95%)
    Default : Да
    Forced : Нет
    Цветовой диапазон : Limited
    Аудио
    Идентификатор : 2
    Формат : AAC
    Формат/Информация : Advanced Audio Codec
    Профиль формата : LC
    Идентификатор кодека : A_AAC
    Продолжительность : 2 ч. 1 м.
    Битрейт : 128 Кбит/сек
    Каналы : 2 канала
    Расположение каналов : Front: L R
    Частота : 44, 1 КГц
    Частота кадров : 43, 066 кадра/сек (1024 SPF)
    Метод сжатия : С потерями
    Размер потока : 112 Мбайт (5%)
    Язык : English
    Default : Да
    Forced : Нет

    Скриншоты для ознакомления



    Все одноименные релизы в Клубе
    Время раздачи: 24/7 (до появления первых 3-5 скачавших)

    Баскетбол. Чемпионат Европы 2017. Предварительный раунд. Группа B. 2-й тур. Грузия – Германия (02.09.2017) WEB-DL [H.264/720p-LQ] [EN]
    загрузка...
    Рейтинг →
     (голосов: 1, оценка 3/5, голосовать можно 1 раз )

    Другие торренты по теме:

  • Баскетбол. Чемпионат Европы 2017. Группа C. 4-й тур. Хорватия – Испания (05.09.2017) HDTVRip [H.264 / 720p-LQ]
  • Баскетбол. Чемпионат Европы 2017. Группа B. 4-й тур. Украина – Литва (05.09.2017) HDTVRip [H.264 / 720p-LQ] [UKR]
  • Баскетбол. Чемпионат Европы 2017. Группа D. 3-й тур. Сербия – Турция (04.09.2017) HDTVRip [H.264 / 720p-LQ] [hand made 50fps]
  • Баскетбол. Чемпионат Европы 2017. Группа D. 3-й тур. Латвия – Великобритания (04.09.2017) HDTVRip [H.264 / 720p-LQ] [hand made 50fps]
  • Баскетбол. Чемпионат Европы 2017. Группа D. 3-й тур. Бельгия – Россия (04.09.2017) HDTVRip [H.264 / 720p-LQ] [hand made 50fps]
  • Баскетбол. Чемпионат Европы 2017. Предварительный раунд. Группа B. 3-й тур. Германия – Израиль (03.09.2017) WEB-DLRip [H.264 / 720p-LQ]
  • Баскетбол. Чемпионат Европы 2017. Группа D. 4-й тур. Россия – Латвия (05.09.2017) HDTVRip [H.264 / 720p-LQ]
  • Баскетбол. Чемпионат Европы-2017. Мужчины. Отборочный турнир. Группа C. 1-й тур. Россия — Босния и Герцеговина (31.08.2016) HDTV [H.264 / 1080i]


    • Комментарии (0):

      Информация

      Информация

        Посетители, находящиеся в группе Гости, не могут оставлять комментарии в данной новости.

        ↓ Меню




        ↓ Опрос

        Вы добавили сайт в закладки?
        Да
        Нет


        Top 10 за месяц (Передачи)