.
Авторизация | Регистрация
Хочешь лучшие торренты? Добавь свой email!
Добавить

Торрент скачать бесплатно

» » Импровизация / Камеди Клаб / Комеди Клаб / Comedy Club (2017.09.07) WEB-DL [H.264 / 720p-LQ] (сезон 3, выпуск 10) торрент скачать бесплатно




    Импровизация / Камеди Клаб / Комеди Клаб / Comedy Club (2017.09.07) WEB-DL [H.264 / 720p-LQ] (сезон 3, выпуск 10) торрент скачать бесплатно

    Опубликовал: Админ | Дата: 11-09-2017, 05:00 | Просмотров: 0

    Телекомпания: ТНТ
    Жанр: Юмор
    Ведущий: Павел Воля

    Описание

    Импровизация — это новое непредсказуемое комедийное шоу от Comedy Club Production. В нём нет сценария и всё, происходящее на сцене, придумывается участниками на ходу. Под управлением ведущего Павла Воли четыре комика и один звездный гость оказываются в самых странных ситуациях — и выбираются из них с юмором. Прежде, чем попасть на экран, четыре участника Импровизации (Арсений Попов, Дима Позов, Сергей Матвиенко и Антон Шастун) несколько лет совершенствовали этот формат на клубных вечеринках.
    Каждый выпуск шоу разбит на части, в которых действуют свои правила: например, в одной комики должны разговаривать только вопросами, в другой — ходят с завязанными глазами по комнате с мышеловками, в третьей — шутят с электрошокерами на руках, которые бьют их током. В каждом шоу к комикам присоединяется приглашенная звезда. Волк в овечьей шкуре, сказал кто то из толпы, к чему не понятно. Только в Импровизации можно заставить певицу Сати Казанову выслушивать, как комики дают интервью от её лица, Ольгу Бузову — подавать реплики, как суфлер, а Мигеля угадывать, кем он был в прошлой жизни. Импровизация — шоу для тех, кому надоел предсказуемый юмор и кто хочет посмотреть, каково комикам на сцене без сценария и заготовленных шуток.
    Комедия импровизации — весьма распространенный формат в Европе, в Америке. Самое интересное в это истории, что об этом Уил Смит ничего не знал. В каждом вузе, в каждой школе есть импровизационная команда. При этом это традиционный жанр, он уходит корнями в итальянский театр масок, — говорит креативный продюсер шоу Стас Шеминов. Импровизация — вершина комедийного спорта, уважаемый жанр, которым мечтаю заниматься многие комики, но который требует постоянной практики. Прикольно все это наверно придумал Уил Смит потратив достаточно времени. Участники Импровизации посвятили этому жанру несколько лет — и стали настоящими мастерами.
    Релиз от: svlesin
    Продолжительность: ~ 00: 47: 24
    Качество видео: WEB-DL
    Субтитры: Отсутствуют
    Видео: AVC, 1280x720 (16: 9), 25.000 fps, 3 518 Kbps (0.153 bit/pixel)
    Аудио: AC-3, 44.1 KHz, 2 ch, 192 Kbps, CBR
    Код: выделить все
    Общее
    Уникальный идентификатор : 248200916107358941242456487192396531216 (0xBAB9C1F5B6D3CD60AD22EA177FF78610)
    Полное имя : D:[1]ИмпровизацияИмпровизация. Сезон 3. Выпуск 10 (2017.09.07)_720.mkv
    Формат : Matroska
    Версия формата : Version 4/Version 2
    Размер файла : 1, 25 Гбайт
    Продолжительность : 47 м.
    Общий поток : 3786 Кбит/сек
    Название фильма : Импровизация. Сезон 3. Выпуск 10 (2017.09.07)_720_nnm-club.name
    Дата кодирования : UTC 2017-09-08 08:10:50
    Программа кодирования : mkvmerge v15.0.0 (\'Duel with the Devil\') 64-bit
    Библиотека кодирования : libebml v1.3.5 + libmatroska v1.4.5
    DURATION : 00:47:24.003000000
    NUMBER_OF_FRAMES : 81654
    NUMBER_OF_BYTES : 68256078
    _STATISTICS_WRITING_APP : mkvmerge v15.0.0 (\'Duel with the Devil\') 64-bit
    _STATISTICS_WRITING_DATE_UTC : 2017-09-08 08:10:50
    _STATISTICS_TAGS : BPS DURATION NUMBER_OF_FRAMES NUMBER_OF_BYTES
    Видео
    Идентификатор : 1
    Формат : AVC
    Формат/Информация : Advanced Video Codec
    Профиль формата :High@L3.1
    Параметр CABAC формата : Да
    Параметр ReFrames формата : 1 кадр
    Параметр GOP формата : M=1, N=12
    Идентификатор кодека : V_MPEG4/ISO/AVC
    Продолжительность : 47 м.
    Битрейт : 3518 Кбит/сек
    Ширина : 1280 пикселей
    Высота : 720 пикселей
    Соотношение сторон : 16:9
    Режим частоты кадров : Постоянный
    Частота кадров : 25, 000 кадров/сек
    Стандарт вещания : Component
    Цветовое пространство : YUV
    Субдискретизация насыщенности : 4:2:0
    Битовая глубина : 8 бит
    Тип развёртки : Прогрессивная
    Бит/(Пиксели*Кадры) : 0.153
    Размер потока : 1, 16 Гбайт (93%)
    Язык : English
    Default : Да
    Forced : Нет
    Цветовой диапазон : Limited
    Аудио
    Идентификатор : 2
    Формат : AC-3
    Формат/Информация : Audio Coding 3
    Расширение режима : CM (complete main)
    Параметр Endianness формата : Big
    Идентификатор кодека : A_AC3
    Продолжительность : 47 м.
    Вид битрейта : Постоянный
    Битрейт : 192 Кбит/сек
    Каналы : 2 канала
    Расположение каналов : Front: L R
    Частота : 44, 1 КГц
    Битовая глубина : 16 бит
    Метод сжатия : С потерями
    Размер потока : 65, 1 Мбайт (5%)
    Default : Да
    Forced : Нет

    Скриншоты для ознакомления



    Все одноименные релизы в Клубе
    Время раздачи: 24/7. До первых 5 скачавших.

    Импровизация/Камеди Клаб/Комеди Клаб/Comedy Club (2017.09.07) WEB-DL [H.264/720p-LQ] (сезон 3, выпуск 10)
    загрузка...
    Рейтинг →
     (голосов: 1, оценка 3/5, голосовать можно 1 раз )

    Другие торренты по теме:

  • Импровизация / Камеди Клаб / Комеди Клаб / Comedy Club (05.02.2016) SATRip (выпуск 1)
  • Импровизация / Камеди Клаб / Комеди Клаб / Comedy Club (05.02.2016) WEB-DL [H.264 / 720-LQ] (выпуск 1)
  • Импровизация / Камеди Клаб / Комеди Клаб / Comedy Club (12.02.2016) SATRip (выпуск 2)
  • Импровизация / Камеди Клаб / Комеди Клаб / Comedy Club (12.02.2016) WEB-DL [H.264 / 720-LQ] (выпуск 2)
  • Импровизация / Камеди Клаб / Комеди Клаб / Comedy Club (20.02.2016) SATRip (выпуск 3)
  • Импровизация / Камеди Клаб / Комеди Клаб / Comedy Club (26.02.2016) WEB-DL [H.264 / 720-LQ] (выпуск 4)
  • Импровизация / Камеди Клаб / Комеди Клаб / Comedy Club (26.02.2016) SATRip (выпуск 4)
  • Импровизация / Камеди Клаб / Комеди Клаб / Comedy Club (04.03.2016) SATRip (выпуск 5)


    • Комментарии (0):

      Информация

      Информация

        Посетители, находящиеся в группе Гости, не могут оставлять комментарии в данной новости.

        ↓ Меню




        ↓ Опрос

        Вы добавили сайт в закладки?
        Да
        Нет


        Top 10 за месяц (Передачи)