.
Авторизация | Регистрация
Хочешь лучшие торренты? Добавь свой email!
Добавить

Торрент скачать бесплатно

» » Импровизация / Камеди Клаб / Комеди Клаб / Comedy Club (2017.09.07) HDTV [H.264 / 1080i] (сезон 3, выпуск 10) торрент скачать бесплатно




    Импровизация / Камеди Клаб / Комеди Клаб / Comedy Club (2017.09.07) HDTV [H.264 / 1080i] (сезон 3, выпуск 10) торрент скачать бесплатно

    Опубликовал: Админ | Дата: 11-09-2017, 05:00 | Просмотров: 0

    Телекомпания: ТНТ HD
    Жанр: Юмор
    Ведущий: Павел Воля

    Описание

    Импровизация — это новое непредсказуемое комедийное шоу от Comedy Club Production. В нём нет сценария и всё, происходящее на сцене, придумывается участниками на ходу. О таком странном сюжете не догадывалась даже Светлана Лобода. Под управлением ведущего Павла Воли четыре комика и один звездный гость оказываются в самых странных ситуациях — и выбираются из них с юмором. Прежде, чем попасть на экран, четыре участника Импровизации (Арсений Попов, Дима Позов, Сергей Матвиенко и Антон Шастун) несколько лет совершенствовали этот формат на клубных вечеринках.
    Каждый выпуск шоу разбит на части, в которых действуют свои правила: например, в одной комики должны разговаривать только вопросами, в другой — ходят с завязанными глазами по комнате с мышеловками, в третьей — шутят с электрошокерами на руках, которые бьют их током. В каждом шоу к комикам присоединяется приглашенная звезда. Только в Импровизации можно заставить певицу Сати Казанову выслушивать, как комики дают интервью от её лица, Ольгу Бузову — подавать реплики, как суфлер, а Мигеля угадывать, кем он был в прошлой жизни. Импровизация — шоу для тех, кому надоел предсказуемый юмор и кто хочет посмотреть, каково комикам на сцене без сценария и заготовленных шуток.
    Комедия импровизации — весьма распространенный формат в Европе, в Америке. В каждом вузе, в каждой школе есть импровизационная команда. При этом это традиционный жанр, он уходит корнями в итальянский театр масок, — говорит креативный продюсер шоу Стас Шеминов. Импровизация — вершина комедийного спорта, уважаемый жанр, которым мечтаю заниматься многие комики, но который требует постоянной практики. Вашими молитвами, сказал кто то из толпы, к чему не понятно. Участники Импровизации посвятили этому жанру несколько лет — и стали настоящими мастерами.
    Релиз от: 25Kuzmich
    Продолжительность: ~ 00: 49: 45
    Качество видео: HDTV
    Субтитры: Отсутствуют
    Видео: AVC, 1920x1080 (16: 9), 25.000 fps, 12.3 Mbps (0.237 bit/pixel)
    Аудио: MP2, 48.0 KHz, 2 ch, 192 Kbps, CBR
    Код: выделить все
    Общее
    Идентификатор : 1 (0x1)
    Полное имя : D:[1]ИмпровизацияИмпровизация. Сезон 3. Выпуск 10 (2017.09.07)_1080.ts
    Формат : MPEG-TS
    Размер файла : 4, 55 Гбайт
    Продолжительность : 49 м.
    Режим общего битрейта : Переменный
    Общий поток : 13, 1 Мбит/сек
    Видео
    Идентификатор : 207 (0xCF)
    Идентификатор меню : 2207 (0x89F)
    Формат : AVC
    Формат/Информация : Advanced Video Codec
    Профиль формата : High@L4
    Параметр CABAC формата : Да
    Параметр ReFrames формата : 4 кадра
    Идентификатор кодека : 27
    Продолжительность : 49 м.
    Битрейт : 12, 3 Мбит/сек
    Ширина : 1920 пикселей
    Высота : 1080 пикселей
    Соотношение сторон : 16:9
    Частота кадров : 25, 000 кадров/сек
    Стандарт вещания : Component
    Цветовое пространство : YUV
    Субдискретизация насыщенности : 4:2:0
    Битовая глубина : 8 бит
    Тип развёртки : Чересстрочная
    Порядок развёртки : Верхнее поле первое
    Бит/(Пиксели*Кадры) : 0.237
    Размер потока : 4, 26 Гбайт (94%)
    Цветовой диапазон : Limited
    Основные цвета : BT.709
    Характеристики трансфера : BT.709
    Коэффициенты матрицы : BT.709
    Аудио
    Идентификатор : 307 (0x133)
    Идентификатор меню : 2207 (0x89F)
    Формат : MPEG Audio
    Версия формата : Version 1
    Профиль формата : Layer 2
    Идентификатор кодека : 3
    Продолжительность : 49 м.
    Вид битрейта : Постоянный
    Битрейт : 192 Кбит/сек
    Каналы : 2 канала
    Частота : 48, 0 КГц
    Метод сжатия : С потерями
    Задержка видео : -120 мс.
    Размер потока : 68, 3 Мбайт (1%)
    Язык : Russian

    Скриншоты для ознакомления



    Все одноименные релизы в Клубе
    Время раздачи: 24/7. До первых 5 скачавших.

    Импровизация/Камеди Клаб/Комеди Клаб/Comedy Club (2017.09.07) HDTV [H.264/1080i] (сезон 3, выпуск 10)
    загрузка...
    Рейтинг →
     (голосов: 1, оценка 4/5, голосовать можно 1 раз )

    Другие торренты по теме:

  • Импровизация / Камеди Клаб / Комеди Клаб / Comedy Club (05.02.2016) SATRip (выпуск 1)
  • Импровизация / Камеди Клаб / Комеди Клаб / Comedy Club (05.02.2016) WEB-DL [H.264 / 720-LQ] (выпуск 1)
  • Импровизация / Камеди Клаб / Комеди Клаб / Comedy Club (12.02.2016) SATRip (выпуск 2)
  • Импровизация / Камеди Клаб / Комеди Клаб / Comedy Club (12.02.2016) WEB-DL [H.264 / 720-LQ] (выпуск 2)
  • Импровизация / Камеди Клаб / Комеди Клаб / Comedy Club (20.02.2016) SATRip (выпуск 3)
  • Импровизация / Камеди Клаб / Комеди Клаб / Comedy Club (26.02.2016) WEB-DL [H.264 / 720-LQ] (выпуск 4)
  • Импровизация / Камеди Клаб / Комеди Клаб / Comedy Club (26.02.2016) SATRip (выпуск 4)
  • Импровизация / Камеди Клаб / Комеди Клаб / Comedy Club (04.03.2016) SATRip (выпуск 5)


    • Комментарии (0):

      Информация

      Информация

        Посетители, находящиеся в группе Гости, не могут оставлять комментарии в данной новости.

        ↓ Меню




        ↓ Опрос

        Вы добавили сайт в закладки?
        Да
        Нет


        Top 10 за месяц (Передачи)