.
Авторизация | Регистрация
Хочешь лучшие торренты? Добавь свой email!
Добавить

Торрент скачать бесплатно

» » Юморина. Бархатный сезон (2017.09.08) SATRip торрент скачать бесплатно




    Юморина. Бархатный сезон (2017.09.08) SATRip торрент скачать бесплатно

    Опубликовал: Админ | Дата: 11-09-2017, 05:00 | Просмотров: 0

    Телекомпания: Россия
    Жанр: Юмор
    Участники: Игорь Маменко, дуэт Новые Русские Бабки, Евгений Петросян, Юрий Аскаров, Елена Воробей, Геннадий Ветров, Владимир Винокур, Владимир Данилец и Владимир Моисеенко, Александр и Валерий Пономаренко и многие другие.

    Описание

    Только лучшие из лучших в главном юмористическом фестивале года Юморина на телеканале Россия!
    Сегодня только премьеры - новые пародии, миниатюры и монологи в исполнении любимых артистов.
    Релиз от: -=DeMoH=-
    Продолжительность: 02: 32: 41
    Качество видео: SATRip
    Субтитры: Отсутствуют
    Реклама: Присутствуют вставки текстовой рекламы
    Видео: MPEG4, XviD, 720x400 (16: 9), 25.000 fps, 1 796 Kbps (0.250 bit/pixel)
    Аудио: AC-3, 48.0 KHz, 2 ch, 192 Kbps, CBR
    Код: выделить все
    Общее
    Полное имя : D:[1]ЮморинаЮморина (2017.09.08).avi
    Формат : AVI
    Формат/Информация : Audio Video Interleave
    Профиль формата : OpenDML
    Размер файла : 2, 13 Гбайт
    Продолжительность : 2 ч. 32 м.
    Общий поток : 2001 Кбит/сек
    Программа кодирования : VirtualDubModRus 1.5.10.1 (build 2439/release)
    Библиотека кодирования : VirtualDubMod build 2439/release
    Видео
    Идентификатор : 0
    Формат : MPEG-4 Visual
    Профиль формата : Advanced Simple@L5
    Параметр BVOP формата : 2
    Параметр QPel формата : Нет
    Параметр GMC формата : Без точки перехода
    Параметр матрицы формата : Default (H.263)
    Идентификатор кодека : XVID
    Идентификатор кодека/Подсказка : XviD
    Продолжительность : 2 ч. 32 м.
    Битрейт : 1796 Кбит/сек
    Ширина : 720 пикселей
    Высота : 400 пикселей
    Соотношение сторон : 16:9
    Частота кадров : 25, 000 кадров/сек
    Цветовое пространство : YUV
    Субдискретизация насыщенности : 4:2:0
    Битовая глубина : 8 бит
    Тип развёртки : Прогрессивная
    Метод сжатия : С потерями
    Бит/(Пиксели*Кадры) : 0.250
    Размер потока : 1, 92 Гбайт (90%)
    Библиотека кодирования : XviD 1.2.1 (UTC 2008-12-04)
    Аудио
    Идентификатор : 1
    Формат : AC-3
    Формат/Информация : Audio Coding 3
    Расширение режима : CM (complete main)
    Параметр Endianness формата : Big
    Идентификатор кодека : 2000
    Продолжительность : 2 ч. 32 м.
    Вид битрейта : Постоянный
    Битрейт : 192 Кбит/сек
    Каналы : 2 канала
    Расположение каналов : Front: L R
    Частота : 48, 0 КГц
    Битовая глубина : 16 бит
    Метод сжатия : С потерями
    Размер потока : 210 Мбайт (10%)
    Выравнивание : Разделение по промежуткам
    Продолжительность промежутка : 40 мс. (1, 00 видеокадр)
    Время предзагрузки промежутка : 500 мс.

    Скриншоты для ознакомления



    Все одноименные релизы в Клубе
    Время раздачи: 24/7. До первых 5 скачавших.

    Юморина. Бархатный сезон (2017.09.08) SATRip
    загрузка...
    Рейтинг →
     (голосов: 1, оценка 4/5, голосовать можно 1 раз )

    Другие торренты по теме:

  • Юморина (2015.04.24) SATRip скачать через торрент бесплатно
  • Юморина (2015.05.15) SATRip скачать через торрент бесплатно
  • Юморина (2015.05.22) SATRip скачать через торрент бесплатно
  • Юморина (2015.05.29) SATRip скачать через торрент бесплатно
  • Юморина (2015.06.05) SATRip скачать через торрент бесплатно
  • Юморина (2015.06.11) SATRip скачать через торрент бесплатно
  • Юморина (2015.07.03) SATRip скачать через торрент бесплатно
  • Юморина (2015.07.17) SATRip скачать через торрент бесплатно


    • Комментарии (0):

      Информация

      Информация

        Посетители, находящиеся в группе Гости, не могут оставлять комментарии в данной новости.

        ↓ Меню




        ↓ Опрос

        Вы добавили сайт в закладки?
        Да
        Нет


        Top 10 за месяц (Передачи)