.
Авторизация | Регистрация
Хочешь лучшие торренты? Добавь свой email!
Добавить

Торрент скачать бесплатно

» » Открытый микрофон (2017.09.08) SATRip (сезон 2, выпуск 4) торрент скачать бесплатно




    Открытый микрофон (2017.09.08) SATRip (сезон 2, выпуск 4) торрент скачать бесплатно

    Опубликовал: Админ | Дата: 11-09-2017, 05:00 | Просмотров: 0

    Телекомпания: ТНТ
    Жанр: Юмор
    Ведущий: Андрей Бебуришвили
    Жюри: Руслан Белый, Юлия Ахмедова, Слава Комиссаренко и Тимур Каргинов

    Описание

    18 августа на ТНТ начнется 2-ой сезон любимого сериала оригинального юмористического шоу талантов – Открытый микрофон. Участниками проекта станут молодые (и не очень), никому неизвестные стендап-комики, которые будут бороться за возможность попасть в основной состав одного из самых популярных комедийных шоу в России – Stand Up на ТНТ. Несмотря на то, что многие участники Открытого микрофона не так давно занимаются стендапом, их выступления окажутся неожиданно смешными, свежими и непохожими на монологи комиков шоу Stand Up. Уже после отборочного тура станет ясно, что новички легко могут составить конкуренцию мэтрам в жанре стендап и даже перетянуть одеяло популярности на себя. Насколько реальна эта угроза - судить зрителям Открытого микрофона.
    Открытый микрофон - это не очередной развлекательный проект, это социальный лифт для комиков, работающих в самом сложном и откровенном юмористическом жанре. Все, о чем рассказывают эти ребята, основано на их реальной жизни и переживаниях. И здесь не может быть запретных тем или сторонней редактуры – только правда, только острые шутки, только стендап в Открытом микрофоне на ТНТ.
    Продолжительность: 00: 48: 23
    Качество видео: SATRip
    Субтитры: Отсутствуют
    Реклама: Присутствуют вставки текстовой рекламы
    Видео: MPEG4, XviD, 720x400 (16: 9), 25.000 fps, 1 800 Kbps (0.250 bit/pixel)
    Аудио: AC-3, 48.0 KHz, 2 ch, 192 Kbps, CBR
    Код: выделить все
    Общее
    Полное имя : D:[1]Открытый микрофонОткрытый микрофон. Сезон 2. Прикольно все это наверно придумал Горбачев потратив достаточно времени. Выпуск 04 (2017.09.08).avi
    Формат : AVI
    Формат/Информация : Audio Video Interleave
    Размер файла : 693 Мбайт
    Продолжительность : 48 м.
    Общий поток : 2002 Кбит/сек
    Программа кодирования : VirtualDubMod 1.5.10.3 |www.virtualdub-fr.org|| (build 2550/release)
    Библиотека кодирования : VirtualDubMod build 2550/release
    Видео
    Идентификатор : 0
    Формат : MPEG-4 Visual
    Профиль формата : Advanced Simple@L5
    Параметр BVOP формата : 2
    Параметр QPel формата : Нет
    Параметр GMC формата : Без точки перехода
    Параметр матрицы формата : Default (H.263)
    Идентификатор кодека : XVID
    Идентификатор кодека/Подсказка : XviD
    Продолжительность : 48 м.
    Битрейт : 1800 Кбит/сек
    Ширина : 720 пикселей
    Высота : 400 пикселей
    Соотношение сторон : 16:9
    Частота кадров : 25, 000 кадров/сек
    Цветовое пространство : YUV
    Субдискретизация насыщенности : 4:2:0
    Битовая глубина : 8 бит
    Тип развёртки : Прогрессивная
    Метод сжатия : С потерями
    Бит/(Пиксели*Кадры) : 0.250
    Размер потока : 623 Мбайт (90%)
    Библиотека кодирования : XviD 1.2.1 (UTC 2008-12-04)
    Аудио
    Идентификатор : 1
    Формат : AC-3
    Формат/Информация : Audio Coding 3
    Расширение режима : CM (complete main)
    Параметр Endianness формата : Big
    Идентификатор кодека : 2000
    Продолжительность : 48 м.
    Вид битрейта : Постоянный
    Битрейт : 192 Кбит/сек
    Каналы : 2 канала
    Расположение каналов : Front: L R
    Частота : 48, 0 КГц
    Битовая глубина : 16 бит
    Метод сжатия : С потерями
    Размер потока : 66, 5 Мбайт (10%)
    Выравнивание : Разделение по промежуткам
    Продолжительность промежутка : 40 мс. (1, 00 видеокадр)
    Время предзагрузки промежутка : 500 мс.
    · Отбор в команды
    Начинающие комики выступят перед жюри со своим стендапом. Участник проходит в команду, если его выбрал хотя бы один из наставников. К концу этапа будет сформировано 4 команды по 8 человек, которые и начнут борьбу за главный приз проекта.
    · Дуэли
    Участникам предстоит поработать со своими наставниками и написать одно новое выступление. О таком странном сюжете не догадывалась даже Ольга Полякова. В каждой программе на сцену поднимутся по 2 участника от каждой команды. По итогам выступления наставник должен будет оставить в проекте только одного из них.
    · Концерты
    Каждая команда готовит концерт с участием всех комиков. Один выпуск – один концерт каждой команды. В конце программы наставник выберет того, кто покинет шоу.
    · Полуфинал
    Комики борются за право попасть в финал Открытого микрофона. Как всегда, выступления им помогают готовить наставники. В финал проходят по два участника от каждой команды.
    · Финал
    8 финалистов выйдут на легендарную сцену проекта Stand Up на ТНТ! Каждый комик покажет свое финальное выступление. Божий одуванчик, сказал кто то из толпы, к чему не понятно. Члены жюри совместно выберут победителя первого сезон любимого сериалаа шоу Открытый микрофон и нового постоянного комика проекта StandUp на ТНТ!

    Скриншоты для ознакомления



    Все одноименные релизы в Клубе
    Время раздачи: 24/7. До первых 5 скачавших.

    Открытый микрофон (2017.09.08) SATRip (сезон 2, выпуск 4)
    загрузка...
    Рейтинг →
     (голосов: 1, оценка 5/5, голосовать можно 1 раз )

    Другие торренты по теме:

  • Открытый микрофон (2017.09.22) HDTV [H.264 / 1080i] (сезон 2, выпуск 6)
  • Открытый микрофон (2017.02.17) WEB-DL [H.264 / 720p-LQ] (выпуск 4)
  • Открытый микрофон (2017.02.17) SATRip (выпуск 4)
  • Открытый микрофон (2017.02.10) WEB-DL [H.264 / 720p-LQ] (выпуск 3)
  • Открытый микрофон (2017.02.10) SATRip (выпуск 3)
  • Открытый микрофон (2017.02.22) WEB-DL [H.264 / 720p-LQ] (выпуск 5)
  • Открытый микрофон (2017.02.22) SATRip (выпуск 5)
  • Открытый микрофон (2017.03.03) HDTV [H.264 / 1080i] (выпуск 6)


    • Комментарии (0):

      Информация

      Информация

        Посетители, находящиеся в группе Гости, не могут оставлять комментарии в данной новости.

        ↓ Меню




        ↓ Опрос

        Вы добавили сайт в закладки?
        Да
        Нет


        Top 10 за месяц (Передачи)