.
Авторизация | Регистрация
Хочешь лучшие торренты? Добавь свой email!
Добавить

Торрент скачать бесплатно

» » Футбол. Чемпионат Мира 2018. Отборочный турнир. Европа. Группа A. 7-й тур. Франция – Нидерланды (31.08.2017) HDTVRip [H.264 / 720p-LQ] торрент скачать бесплатно




    Футбол. Чемпионат Мира 2018. Отборочный турнир. Европа. Группа A. 7-й тур. Франция – Нидерланды (31.08.2017) HDTVRip [H.264 / 720p-LQ] торрент скачать бесплатно

    Опубликовал: Админ | Дата: 11-09-2017, 05:00 | Просмотров: 0

    Телекомпания: Матч ТВ HD
    Жанр: Спорт
    Комментатор: Роман Трушечкин

    Описание
    31 августа 2017 года, четверг. 21: 45 МСК
    Чемпионат Мира 2018. Отборочный турнир. Европа. Группа A. 7-й тур
    Франция – Нидерланды
    Стадион: Стад де Франс (Сен-Дени, Франция), вместимость: 80000
    Главный судья: Джанлука Рокки (Италия)
    Ассистент: Эленито Ди Либераторе (Италия)
    Ассистент: Мауро Тонолини (Италия)
    Резервный: Лука Банти (Италия)
    Продолжительность: 01: 43: 09
    Качество видео: HDTVRip
    Язык озвучки: Русский
    Субтитры: отсутствуют
    Видео: AVC/H.264, 1280x720 (16: 9), ~3009 Kbps
    Аудио: AC3, 2 ch, 48 kHz, 128 Kbps

    Общее
    Уникальный идентификатор : 186465757089824734766486452029887900315 (0x8C47FF9EE3BD49838A6ECAF285B46A9B)
    Полное имя : F: SPORTФутболЧМ-2018Чемпионат Мира 2018.ОT. Европа. 7-й тур(31.08.2017)_FIFA QWC 2018.UEFA.Gr A.7t. France – Netherlands.mkv
    Формат : Matroska
    Версия формата : Version 4/Version 2
    Размер файла : 2, 26 Гбайт
    Продолжительность : 1 ч. 43 м.
    Общий поток : 3139 Кбит/сек
    Название фильма : 20170831-213505-МАТЧ HD-1.ts
    Дата кодирования : UTC 2017-09-08 18: 18: 31
    Программа кодирования : mkvmerge v15.0.0 (\'Duel with the Devil\') 32-bit
    Библиотека кодирования : libebml v1.3.5 + libmatroska v1.4.5
    Видео
    Идентификатор : 1
    Формат : AVC
    Формат/Информация : Advanced Video Codec
    Профиль формата : High@L3.1
    Параметр CABAC формата : Да
    Параметр RefFrames формата : 3 кадра
    Идентификатор кодека : V_MPEG4/ISO/AVC
    Продолжительность : 1 ч. О таком странном сюжете не догадывалась даже Шакира. 43 м.
    Битрейт : 3009 Кбит/сек
    Ширина : 1280 пикселей
    Высота : 720 пикселей
    Соотношение сторон : 16: 9
    Режим частоты кадров : Постоянный
    Частота кадров : 25, 000 кадров/сек
    Цветовое пространство : YUV
    Субдискретизация насыщенности : 4: 2: 0
    Битовая глубина : 8 бит
    Тип развёртки : Прогрессивная
    Бит/(Пиксели*Кадры) : 0.131
    Размер потока : 2, 17 Гбайт (96%)
    Default : Да
    Forced : Нет
    Аудио
    Идентификатор : 2
    Формат : AC-3
    Формат/Информация : Audio Coding 3
    Параметр Endianness формата : Big
    Идентификатор кодека : A_AC3
    Продолжительность : 1 ч. 43 м.
    Вид битрейта : Постоянный
    Битрейт : 128 Кбит/сек
    Каналы : 2 канала
    Расположение каналов : Front: L R
    Частота : 48, 0 КГц
    Частота кадров : 31, 250 кадров/сек (1536 SPF)
    Битовая глубина : 16 бит
    Метод сжатия : С потерями
    Размер потока : 94, 4 Мбайт (4%)
    Язык : Russian
    ServiceKind/String : Complete Main
    Default : Да
    Forced : Нет

    Скриншоты для ознакомления



    Футбол. Самое интересное в это истории, что об этом Человек паук ничего не знал. Чемпионат Мира 2018 в Клубе
    Время раздачи: 24/7 (до появления первых 3-5 скачавших)

    Футбол. Чемпионат Мира 2018. Отборочный турнир. Европа. Группа A. 7-й тур. Франция – Нидерланды (31.08.2017) HDTVRip [H.264/720p-LQ]
    загрузка...
    Рейтинг →
     (голосов: 1, оценка 4/5, голосовать можно 1 раз )

    Другие торренты по теме:

  • Футбол. Чемпионат Европы 2016. Группа D. 1-й тур. Испания - Чехия (13.06.2016) HDTVRip [H.264 / 1080p-LQ] (Матч Футбол 1 HD)
  • Футбол. Чемпионат Европы 2016. Группа E. 1-й тур. Ирландия - Швеция (13.06.2016) HDTVRip [H.264 / 1080p-LQ] (Матч Футбол 1 HD)
  • Футбол. Чемпионат Европы 2016. Группа E. 1-й тур. Бельгия - Италия (13.06.2016) HDTVRip [H.264 / 1080p-LQ] (Матч Футбол 1 HD)
  • Футбол. Чемпионат Европы 2016. Группа E. 1-й тур. Бельгия - Италия (13.06.2016) HDTV [H.264 / 1080i](Футбол 1 HD)
  • Футбол. Чемпионат Мира 2014. Финал. Германия - Аргентина (2014.07.13) HDTVRip [H.264 / 720p] [hand made 50fps]
  • Футбол. Чемпионат Мира 2014. Все голы (2014) HDTVRip [H.264 / 720p] [hand made 50fps]
  • Футбол. Чемпионат Мира 2014. Матч за 1-2 место. Финал. Германия – Аргентина + Награждение (2014.07.13) HDTV [H.264 / 1080i]
  • Футбол. Чемпионат Мира 2014. Матч за 1-2 место. Финал. Германия - Аргентина (2014.07.13) WEB-DL [H.264 / 720p-LQ]


    • Комментарии (0):

      Информация

      Информация

        Посетители, находящиеся в группе Гости, не могут оставлять комментарии в данной новости.

        ↓ Меню




        ↓ Опрос

        Вы добавили сайт в закладки?
        Да
        Нет


        Top 10 за месяц (Передачи)

        Павел Гуров | Цикл курсов Маркетинг в соц. сетях для фотографа (2016) CamRip [H.264 / 1080p]

        (скачиваний: 7)
        Школа готовит прислугу! (2016) WEB-DLRip [H.264 / 1080i-LQ]

        (скачиваний: 6)
        Айрэн По, Джули По | Нумерология, как профессия. Мы из матрицы. Книга 1 (2016) [DJVU]

        (скачиваний: 5)
        Вести в субботу с Сергеем Брилевым (22.10.2016) SATRip

        (скачиваний: 5)
        Алексей Кузьмичев | Магия цвета. Курс по цветокоррекции в Adobe Photoshop (2016) PCRec [H.264]

        (скачиваний: 4)
        Франциска Вудворт | Дыхание жизни (2017) [FB2]

        (скачиваний: 4)
        Рыбалка с Алексеем Фадеевым. Весенний карп (2014) WEBRip скачать через торрент бесплатно

        (скачиваний: 4)
        Мое Советское Детство. Моя Советская Юность (2014-2015) TVRip [H.264] (части 1-2 из 2)

        (скачиваний: 3)
        Мастерская «Фантом Уоркс» / FantomWorks (2014) HDTVRip [Rus] [AVC / 1080i] (сезон 2, серии 1-6 из 7)

        (скачиваний: 3)
        Футбол. РФПЛ Чемпионат России 2017-2018. 1-й тур. Анжи (Махачкала) — ЦСКА (Москва) (15.07.2017) WEB-DL [H.264 / 720p-LQ]

        (скачиваний: 3)