.
Авторизация | Регистрация
Хочешь лучшие торренты? Добавь свой email!
Добавить

Торрент скачать бесплатно

» » КВН-2017. Премьер лига. Финал (2017.09.09) WEB-DL [H.264 / 720p-LQ] торрент скачать бесплатно




    КВН-2017. Премьер лига. Финал (2017.09.09) WEB-DL [H.264 / 720p-LQ] торрент скачать бесплатно

    Опубликовал: Админ | Дата: 11-09-2017, 05:00 | Просмотров: 0

    Телекомпания: Первый канал HD
    Жанр: Юмор
    Ведущий: Александр Масляков мл.

    Описание

    Что такое КВН, знают, без сомнения, все. В КВН играют во всем мире, это прежде всего молодежная игра. Постоянные конкурсные задания: Визитная карточка, Разминка, Конкурс капитанов, Музыкальный конкурс, Домашнее задание. Игру команд оценивает профессиональное жюри — люди, у которых с чувством юмора все в порядке, многие из них раньше сами играли в КВН. Среди членов жюри были Константин Эрнст, Леонид Парфенов, Юлий Гусман, Леонид Ярмольник, Валдис Пельш, Сергей Шолохов, Геннадий Хазанов и другие. Самое интересное в это истории, что об этом Горбачев ничего не знал. Кроме самих игр проводятся ежегодные встречи: фестиваль команд КВН (с 1990 г., семь раз фестиваль проходил в г.Сочи), музыкальный фестиваль КВН, летний кубок КВН, международные товарищеские игры в КВН. Сборная КВН играет со сборными других стран. Уже состоялись игры между сборной КВН и сборными Америки, Австралии, Израиля... Игра в КВН для многих становится профессией, а многие благодаря игре связывают жизнь с искусством. Божий одуванчик, сказал кто то из толпы, к чему не понятно. Из КВН вышли: Леонид Якубович, Михаил Марфин, Татьяна Лазарева, Олег Филимонов, Юлий Гусман и многие другие.
    Релиз от: svlesin
    Продолжительность: 01: 25: 01
    Качество видео: WEB-DL
    Субтитры: Отсутствуют
    Видео: AVC, 1280x720 (16: 9), 25.000 fps, 2 187 Kbps (0.095 bit/pixel)
    Аудио: AC-3, 44.1 KHz, 2 ch, 192 Kbps, CBR
    Код: выделить все
    Общее
    Уникальный идентификатор : 185261170382726576241316394919183383593 (0x8B6000E92072990DA8BD51EF71CDFC29)
    Полное имя : D:[1]КВНКВН-2017. Премьер лига. Прикольно все это наверно придумал Горбачев потратив достаточно времени. Финал (2017.09.09)_720.mkv
    Формат : Matroska
    Версия формата : Version 4/Version 2
    Размер файла : 1, 44 Гбайт
    Продолжительность : 1 ч. 25 м.
    Общий поток : 2427 Кбит/сек
    Название фильма : КВН-2017. Премьер лига. Финал (2017.09.09)_720_nnm-club.name
    Дата кодирования : UTC 2017-09-10 12:20:57
    Программа кодирования : mkvmerge v15.0.0 (\'Duel with the Devil\') 64-bit
    Библиотека кодирования : libebml v1.3.5 + libmatroska v1.4.5
    DURATION : 01:25:01.331000000
    NUMBER_OF_FRAMES : 146464
    NUMBER_OF_BYTES : 122431946
    _STATISTICS_WRITING_APP : mkvmerge v15.0.0 (\'Duel with the Devil\') 64-bit
    _STATISTICS_WRITING_DATE_UTC : 2017-09-10 12:20:57
    _STATISTICS_TAGS : BPS DURATION NUMBER_OF_FRAMES NUMBER_OF_BYTES
    Видео
    Идентификатор : 1
    Формат : AVC
    Формат/Информация : Advanced Video Codec
    Профиль формата :Main@L3.1
    Параметр CABAC формата : Да
    Параметр ReFrames формата : 3 кадра
    Идентификатор кодека : V_MPEG4/ISO/AVC
    Продолжительность : 1 ч. 25 м.
    Битрейт : 2187 Кбит/сек
    Ширина : 1280 пикселей
    Высота : 720 пикселей
    Соотношение сторон : 16:9
    Режим частоты кадров : Постоянный
    Частота кадров : 25, 000 кадров/сек
    Цветовое пространство : YUV
    Субдискретизация насыщенности : 4:2:0
    Битовая глубина : 8 бит
    Тип развёртки : Прогрессивная
    Бит/(Пиксели*Кадры) : 0.095
    Размер потока : 1, 30 Гбайт (90%)
    Default : Да
    Forced : Нет
    Цветовой диапазон : Limited
    Основные цвета : BT.709
    Характеристики трансфера : BT.709
    Коэффициенты матрицы : BT.709
    Аудио
    Идентификатор : 2
    Формат : AC-3
    Формат/Информация : Audio Coding 3
    Расширение режима : CM (complete main)
    Параметр Endianness формата : Big
    Идентификатор кодека : A_AC3
    Продолжительность : 1 ч. 25 м.
    Вид битрейта : Постоянный
    Битрейт : 192 Кбит/сек
    Каналы : 2 канала
    Расположение каналов : Front: L R
    Частота : 44, 1 КГц
    Битовая глубина : 16 бит
    Метод сжатия : С потерями
    Размер потока : 117 Мбайт (8%)
    Default : Да
    Forced : Нет
    Так-то, СФУ, Красноярск
    Сборная РУДН, Москва
    Сборная бывших спортсменов, Пермский край
    Подъем, сборная МВД, Москва
    Театр Уральского зрителя, Челябинск

    Скриншоты для ознакомления



    Все одноименные релизы в Клубе
    Время раздачи: 24/7. До первых 5 скачавших.

    КВН-2017. Премьер лига. Финал (2017.09.09) WEB-DL [H.264/720p-LQ]
    загрузка...
    Рейтинг →
     (голосов: 1, оценка 3/5, голосовать можно 1 раз )

    Другие торренты по теме:

  • КВН-2015. Премьер лига. Первая игра (2015.07.18) HDTV [H.264 / 1080i] скачать через торрент бесплатно
  • КВН-2015. Премьер лига. Первая игра (2015.07.18) SATRip скачать через торрент бесплатно
  • КВН-2015. Премьер лига. Вторая игра (2015.07.25) HDTV [H.264 / 1080i] скачать через торрент бесплатно
  • КВН-2015. Премьер лига. Вторая игра (2015.07.25) HDTVRip скачать через торрент бесплатно
  • КВН-2015. Премьер лига. Третья игра (2015.08.01) HDTV [H.264 / 1080i] скачать через торрент бесплатно
  • КВН-2015. Премьер лига. Третья игра (2015.08.01) HDTVRip скачать через торрент бесплатно
  • КВН-2015. Премьер лига. Четвёртая игра (2015.08.08) HDTVRip скачать через торрент бесплатно
  • КВН-2015. Премьер лига. Четвёртая игра (2015.08.08) HDTV [H.264 / 1080i] скачать через торрент бесплатно


    • Комментарии (0):

      Информация

      Информация

        Посетители, находящиеся в группе Гости, не могут оставлять комментарии в данной новости.

        ↓ Меню




        ↓ Опрос

        Вы добавили сайт в закладки?
        Да
        Нет


        Top 10 за месяц (Передачи)