.
Авторизация | Регистрация
Хочешь лучшие торренты? Добавь свой email!
Добавить

Торрент скачать бесплатно

» » Nascar Camping World Truck Series-2017, Этап 15 — Mosports (2017) HDTVRip [H.264 / 720p-LQ] [VO] торрент скачать бесплатно




    Nascar Camping World Truck Series-2017, Этап 15 — Mosports (2017) HDTVRip [H.264 / 720p-LQ] [VO] торрент скачать бесплатно

    Опубликовал: Админ | Дата: 11-09-2017, 05:00 | Просмотров: 0

    Телекомпания: FS1
    Жанр: Спорт

    Описание

    15 этап Nascar Camping World Truck Series Chevrolet Silverado 250 (64 laps, 157.376 miles).
    Релиз от:
    Продолжительность: 01: 48: 34
    Качество видео: HDTVRip
    Перевод: Одноголосый закадровый, любительский
    Язык: Русский
    Видео: AVC/H.264, 1280х720, ~4280 Kbps
    Аудио: AAC, 2 ch, 320 Kbps

    General
    Complete name : E: Записи телевизионных шоуРазноеNascar Camping World Truck Series, Этап 15 - Mosports Park (FS 1, HD 720p, 03.09.2017) Русская озвучка, 545TV, A21 Network.mp4
    Format : MPEG-4
    Format profile : Base Media
    Codec ID : isom (isom/iso2/avc1/mp41)
    File size : 3.49 GiB
    Duration : 1 h 48 min
    Overall bit rate : 4 605 kb/s
    Writing application : Lavf57.40.101
    Video
    ID : 1
    Format : AVC
    Format/Info : Advanced Video Codec
    Format profile : Main@L3.1
    Format settings, CABAC : Yes
    Format settings, ReFrames : 2 frames
    Format settings, GOP : M=1, N=25
    Codec ID : avc1
    Codec ID/Info : Advanced Video Coding
    Duration : 1 h 48 min
    Bit rate : 4 280 kb/s
    Width : 1 280 pixels
    Height : 720 pixels
    Display aspect ratio : 16: 9
    Frame rate mode : Constant
    Frame rate : 25.000 FPS
    Color space : YUV
    Chroma subsampling : 4: 2: 0
    Bit depth : 8 bits
    Scan type : Progressive
    Bits/(Pixel*Frame) : 0.186
    Stream size : 3.25 GiB (93%)
    Audio
    ID : 2
    Format : AAC
    Format/Info : Advanced Audio Codec
    Format profile : LC
    Codec ID : 40
    Duration : 1 h 48 min
    Bit rate mode : Constant
    Bit rate : 320 kb/s
    Channel(s) : 2 channels
    Channel positions : Front: L R
    Sampling rate : 44.1 kHz
    Frame rate : 43.066 FPS (1024 spf)
    Compression mode : Lossy
    Stream size : 249 MiB (7%)
    Default : Yes
    Alternate group : 1

    Скриншоты для ознакомления



    Все одноименные релизы в Клубе
    Время раздачи: с 10.00 до 0.00 (до появления первых 3-5 скачавших)

    Nascar Camping World Truck Series-2017, Этап 15 — Mosports (2017) HDTVRip [H.264/720p-LQ] [VO]
    загрузка...
    Рейтинг →
     (голосов: 1, оценка 5/5, голосовать можно 1 раз )

    Другие торренты по теме:

  • Nascar Camping World Truck Series-2017, Этап 11 — Eldora Dirt Derby (2017) HDTVRip [H.264 / 720p-LQ] [VO]


    • Комментарии (0):

      Информация

      Информация

        Посетители, находящиеся в группе Гости, не могут оставлять комментарии в данной новости.

        ↓ Меню




        ↓ Опрос

        Вы добавили сайт в закладки?
        Да
        Нет


        Top 10 за месяц (Передачи)