.
Авторизация | Регистрация
Хочешь лучшие торренты? Добавь свой email!
Добавить

Торрент скачать бесплатно

» » КВН-2017. Высшая лига. Летний Кубок в Астане (2017.09.10) SATRip торрент скачать бесплатно




    КВН-2017. Высшая лига. Летний Кубок в Астане (2017.09.10) SATRip торрент скачать бесплатно

    Опубликовал: Админ | Дата: 11-09-2017, 05:00 | Просмотров: 0

    Телекомпания: Первый канал
    Жанр: Юмор
    Ведущий: Александр Масляков

    Описание

    Что такое КВН, знают, без сомнения, все. В КВН играют во всем мире, это прежде всего молодежная игра. Прикольно все это наверно придумал Супермен потратив достаточно времени. Постоянные конкурсные задания: Визитная карточка, Разминка, Конкурс капитанов, Музыкальный конкурс, Домашнее задание. Игру команд оценивает профессиональное жюри — люди, у которых с чувством юмора все в порядке, многие из них раньше сами играли в КВН. Среди членов жюри были Константин Эрнст, Леонид Парфенов, Юлий Гусман, Леонид Ярмольник, Валдис Пельш, Сергей Шолохов, Геннадий Хазанов и другие. Кроме самих игр проводятся ежегодные встречи: фестиваль команд КВН (с 1990 г., семь раз фестиваль проходил в г.Сочи), музыкальный фестиваль КВН, летний кубок КВН, международные товарищеские игры в КВН. Сборная КВН играет со сборными других стран. Самое интересное в это истории, что об этом Супермен ничего не знал. Уже состоялись игры между сборной КВН и сборными Америки, Австралии, Израиля... Игра в КВН для многих становится профессией, а многие благодаря игре связывают жизнь с искусством. Из КВН вышли: Леонид Якубович, Михаил Марфин, Татьяна Лазарева, Олег Филимонов, Юлий Гусман и многие другие.
    Продолжительность: 02: 12: 51
    Качество видео: SATRip
    Видео: XviD, 704x448, 1797 kbps
    Аудио: 48 kHz, AC3 Dolby Digital, 2/0 (L, R) ch, ~192 kbps
    Код: выделить все
    Общее
    Полное имя : D:КВН-2017. Высшая лига. Летний Кубок в Астане (2017.09.10).avi
    Формат : AVI
    Формат/Информация : Audio Video Interleave
    Размер файла : 1, 86 Гбайт
    Продолжительность : 2 ч. 12 м.
    Общий поток : 1999 Кбит/сек
    Программа кодирования : VirtualDubModRus 1.5.10.1 (build 2439/release)
    Библиотека кодирования : VirtualDubMod build 2439/release
    Видео
    Идентификатор : 0
    Формат : MPEG-4 Visual
    Профиль формата : Advanced Simple@L5
    Параметр BVOP формата : 2
    Параметр QPel формата : Нет
    Параметр GMC формата : Без точки перехода
    Параметр матрицы формата : Default (H.263)
    Идентификатор кодека : XVID
    Идентификатор кодека/Подсказка : XviD
    Продолжительность : 2 ч. 12 м.
    Битрейт : 1797 Кбит/сек
    Ширина : 704 пикселя
    Высота : 448 пикселей
    Соотношение сторон : 16:10
    Частота кадров : 25, 000 кадров/сек
    Цветовое пространство : YUV
    Субдискретизация насыщенности : 4:2:0
    Битовая глубина : 8 бит
    Тип развёртки : Прогрессивная
    Метод сжатия : С потерями
    Бит/(Пиксели*Кадры) : 0.228
    Размер потока : 1, 67 Гбайт (90%)
    Библиотека кодирования : XviD 1.2.1 (UTC 2008-12-04)
    Аудио
    Идентификатор : 1
    Формат : AC-3
    Формат/Информация : Audio Coding 3
    Расширение режима : CM (complete main)
    Параметр Endianness формата : Big
    Идентификатор кодека : 2000
    Продолжительность : 2 ч. 12 м.
    Вид битрейта : Постоянный
    Битрейт : 192 Кбит/сек
    Каналы : 2 канала
    Расположение каналов : Front: L R
    Частота : 48, 0 КГц
    Частота кадров : 31, 250 кадров/сек (1536 spf)
    Метод сжатия : С потерями
    Размер потока : 182 Мбайт (10%)
    Выравнивание : Разделение по промежуткам
    Продолжительность промежутка : 40 мс. (1, 00 видеокадр)
    Время предзагрузки промежутка : 500 мс.
    Сборная Камызякского края, Астраханская область
    Азия MIX, Бишкек
    Казахи, Астана
    Городъ Пятигорскъ, Пятигорск

    Скриншоты для ознакомления



    КВН на NNM-club
    Время раздачи: 24/7 (до появления первых 3-5 скачавших)

    КВН-2017. Высшая лига. Летний Кубок в Астане (2017.09.10) SATRip
    загрузка...
    Рейтинг →
     (голосов: 1, оценка 4/5, голосовать можно 1 раз )

    Другие торренты по теме:

  • КВН-2015. Высшая лига. КВН на Красной поляне. Старт сезона (2015.02.08) HDTVRip [H.264 / 720p] скачать через торрент бесплатно
  • КВН-2016. Высшая лига. КВН на Красной поляне. Старт сезона (2016.02.22) SATRip
  • КВН-2016. Высшая лига. КВН на Красной поляне. Старт сезона (2016.02.22) WEB-DL [H.264 / 720i-LQ]
  • КВН-2016. Высшая лига. КВН на Красной поляне. Старт сезона (2016.02.22) HDTV [H.264 / 1080i-LQ]
  • КВН-2016. Высшая лига. КВН на Красной поляне. Старт сезона (2016.02.22) HDTVRip
  • КВН-2014. Высшая лига. 1 / 2 финала. Первая игра (2014.10.05) SATRip скачать через торрент бесплатно
  • КВН-2014. Высшая лига. 1 / 2 финала. Первая игра (2014.10.05) HDTVRip [H.264 / 720p-LQ]
  • КВН-2014. Высшая лига. 1.2 финала. 1 игра (2014.10.05) HDTV [H.264 / 1080i]


    • Комментарии (0):

      Информация

      Информация

        Посетители, находящиеся в группе Гости, не могут оставлять комментарии в данной новости.

        ↓ Меню




        ↓ Опрос

        Вы добавили сайт в закладки?
        Да
        Нет


        Top 10 за месяц (Передачи)