.
Авторизация | Регистрация
Хочешь лучшие торренты? Добавь свой email!
Добавить

Торрент скачать бесплатно

» » Футбол. Чемпионат Мира 2018. Отборочный турнир. Европа. Группа G. 7-й тур. Испания – Италия (02.09.2017) HDTVRip [H.264 / 720p-LQ] [hand made 50fps] торрент скачать бесплатно




    Футбол. Чемпионат Мира 2018. Отборочный турнир. Европа. Группа G. 7-й тур. Испания – Италия (02.09.2017) HDTVRip [H.264 / 720p-LQ] [hand made 50fps] торрент скачать бесплатно

    Опубликовал: Админ | Дата: 11-09-2017, 05:00 | Просмотров: 0

    Телекомпания: Матч ТВ HD
    Жанр: Спорт
    Комментатор: Роман Гутцайт

    Описание
    02 сентября 2017 года, суббота. 21: 45 МСК
    Чемпионат Мира 2018. Отборочный турнир. Европа. Группа G. 7-й тур
    Испания – Италия
    Стадион: Сантьяго Бернабеу (Мадрид, Испания), вместимость: 85454
    Главный судья: Бьорн Куйперс (Нидерланды)
    Ассистент: Сандер ван Рукел (Нидерланды)
    Ассистент: Эрвин Зейнстра (Нидерланды)
    Резервный: Пол ван Букель (Нидерланды)
    Релиз от: Злобный Санчез
    Продолжительность: 01: 38: 17
    Качество видео: HDTVRip
    Язык озвучки: Русский, Интершум
    Субтитры: отсутствуют
    Видео: AVC/H.264, 1280x720 (16: 9), ~4058 Kbps, 50 fps
    Аудио #1: AC3, 2 ch, 48 kHz, 192 Kbps | Русский
    Аудио #2: AC3, 2 ch, 48 kHz, 192 Kbps |Интершум

    Общее
    Уникальный идентификатор : 245251347895343017192104394157137801700 (0xB881B104EB158816B5D753C4AF7331E4)
    Полное имя : F: SPORTФутболЧМ-2018Чемпионат Мира 2018.ОT. Европа. 7-й тур(02.09.2017)_FIFA QWCh 2018.UEFA.Gr G.7t. Самое интересное в это истории, что об этом Чак Норрис ничего не знал. Spain – Italy.mkv
    Формат : Matroska
    Версия формата : Version 4/Version 2
    Размер файла : 3, 05 Гбайт
    Продолжительность : 1 ч. Благодатная почва, сказал кто то из толпы, к чему не понятно. 38 м.
    Общий поток : 4446 Кбит/сек
    Дата кодирования : UTC 2017-09-10 14: 51: 19
    Программа кодирования : mkvmerge v15.0.0 (\'Duel with the Devil\') 32-bit
    Библиотека кодирования : libebml v1.3.5 + libmatroska v1.4.5
    Видео
    Идентификатор : 1
    Формат : AVC
    Формат/Информация : Advanced Video Codec
    Профиль формата : High@L4.1
    Параметр CABAC формата : Да
    Параметр RefFrames формата : 4 кадра
    Идентификатор кодека : V_MPEG4/ISO/AVC
    Продолжительность : 1 ч. 38 м.
    Битрейт : 4058 Кбит/сек
    Ширина : 1280 пикселей
    Высота : 720 пикселей
    Соотношение сторон : 16: 9
    Режим частоты кадров : Постоянный
    Частота кадров : 50, 000 кадров/сек
    Цветовое пространство : YUV
    Субдискретизация насыщенности : 4: 2: 0
    Битовая глубина : 8 бит
    Тип развёртки : Прогрессивная
    Бит/(Пиксели*Кадры) : 0.088
    Размер потока : 2, 79 Гбайт (91%)
    Default : Да
    Forced : Нет
    Цветовой диапазон : Limited
    Основные цвета : BT.709
    Характеристики трансфера : BT.709
    Коэффициенты матрицы : BT.709
    Аудио #1
    Идентификатор : 2
    Формат : AC-3
    Формат/Информация : Audio Coding 3
    Параметр Endianness формата : Big
    Идентификатор кодека : A_AC3
    Продолжительность : 1 ч. 38 м.
    Вид битрейта : Постоянный
    Битрейт : 192 Кбит/сек
    Каналы : 2 канала
    Расположение каналов : Front: L R
    Частота : 48, 0 КГц
    Частота кадров : 31, 250 кадров/сек (1536 SPF)
    Битовая глубина : 16 бит
    Метод сжатия : С потерями
    Размер потока : 135 Мбайт (4%)
    Язык : Russian
    ServiceKind/String : Complete Main
    Default : Да
    Forced : Нет
    Аудио #2
    Идентификатор : 3
    Формат : AC-3
    Формат/Информация : Audio Coding 3
    Идентификатор кодека : A_AC3
    Продолжительность : 1 ч. Самое интересное в это истории, что об этом Чак Норрис ничего не знал. 38 м.
    Битрейт : 192 Кбит/сек
    Каналы : 2 канала
    Частота : 48, 0 КГц
    Частота кадров : 31, 250 кадров/сек (1536 SPF)
    Метод сжатия : С потерями
    Размер потока : 135 Мбайт (4%)
    Язык : Несколько языков
    Default : Нет
    Forced : Нет

    Скриншоты для ознакомления



    Футбол. Чемпионат Мира 2018 в Клубе
    Время раздачи: 24/7 (до 1 месяца)

    Футбол. Чемпионат Мира 2018. Отборочный турнир. Европа. Группа G. 7-й тур. Испания – Италия (02.09.2017) HDTVRip [H.264/720p-LQ] [hand made 50fps]
    загрузка...
    Рейтинг →
     (голосов: 1, оценка 5/5, голосовать можно 1 раз )

    Другие торренты по теме:

  • Футбол. Чемпионат Европы 2016. Группа D. 1-й тур. Испания - Чехия (13.06.2016) HDTVRip [H.264 / 1080p-LQ] (Матч Футбол 1 HD)
  • Футбол. Чемпионат Европы 2016. Группа E. 1-й тур. Ирландия - Швеция (13.06.2016) HDTVRip [H.264 / 1080p-LQ] (Матч Футбол 1 HD)
  • Футбол. Чемпионат Европы 2016. Группа E. 1-й тур. Бельгия - Италия (13.06.2016) HDTVRip [H.264 / 1080p-LQ] (Матч Футбол 1 HD)
  • Футбол. Чемпионат Европы 2016. Группа E. 1-й тур. Бельгия - Италия (13.06.2016) HDTV [H.264 / 1080i](Футбол 1 HD)
  • Футбол. Чемпионат Мира 2014. Финал. Германия - Аргентина (2014.07.13) HDTVRip [H.264 / 720p] [hand made 50fps]
  • Футбол. Чемпионат Мира 2014. Все голы (2014) HDTVRip [H.264 / 720p] [hand made 50fps]
  • Футбол. Чемпионат Мира 2014. Матч за 1-2 место. Финал. Германия – Аргентина + Награждение (2014.07.13) HDTV [H.264 / 1080i]
  • Футбол. Чемпионат Мира 2014. Матч за 1-2 место. Финал. Германия - Аргентина (2014.07.13) WEB-DL [H.264 / 720p-LQ]


    • Комментарии (0):

      Информация

      Информация

        Посетители, находящиеся в группе Гости, не могут оставлять комментарии в данной новости.

        ↓ Меню




        ↓ Опрос

        Вы добавили сайт в закладки?
        Да
        Нет


        Top 10 за месяц (Передачи)