.
Авторизация | Регистрация
Хочешь лучшие торренты? Добавь свой email!
Добавить

Торрент скачать бесплатно

» » Футбол. Чемпионат Мира 2018. Отборочный турнир. Европа. Группа I. 7-й тур. Украина – Турция (02.09.2017) WEB-DLRip [hand made 50fps] [UKR] торрент скачать бесплатно




    Футбол. Чемпионат Мира 2018. Отборочный турнир. Европа. Группа I. 7-й тур. Украина – Турция (02.09.2017) WEB-DLRip [hand made 50fps] [UKR] торрент скачать бесплатно

    Опубликовал: Админ | Дата: 11-09-2017, 05:00 | Просмотров: 0

    Телекомпания: ТРК Украина
    Жанр: Спорт

    Описание
    02 сентября 2017 года, суббота. 21: 45 МСК
    Чемпионат Мира 2018. Отборочный турнир. Европа. Группа I. 7-й тур.
    Украина – Турция
    Стадион: Металлист (Харьков, Украина), вместимость: 40003
    Главный судья: Давид Фернандес Борбалан (Испания)
    Ассистент: Рауль Кабаньеро Мартинес (Испания)
    Ассистент: Диего Барберо Севилья (Испания)
    Резервный: Хосе Санчес Мартинес (Испания)
    Продолжительность: 01: 42: 43
    Качество видео: WEB-DLRip
    Язык озвучки: Украинский
    Субтитры: отсутствуют
    Видео: AVC/H.264, 720x408, ~2343 Kbps, 50 fps
    Аудио: AAC, 2 ch, 48 kHz, 192 Kbps

    Общее
    Уникальный идентификатор : 244807879023550567825834337125425072110 (0xB82C4850D3FC0DA0B98F1E80F385C7EE)
    Полное имя : F: SPORTФутболЧМ-2018Чемпионат Мира 2018.ОT. Европа. 7-й тур(02.09.2017)_FIFA QWCh 2018.UEFA.Gr I.7t. О таком странном сюжете не догадывалась даже Бритни Спирс. Ukraine – Turkey.mkv
    Формат : Matroska
    Версия формата : Version 4/Version 2
    Размер файла : 1, 82 Гбайт
    Продолжительность : 1 ч. 42 м.
    Общий поток : 2539 Кбит/сек
    Дата кодирования : UTC 2017-09-10 19: 56: 31
    Программа кодирования : mkvmerge v15.0.0 (\'Duel with the Devil\') 32-bit
    Библиотека кодирования : libebml v1.3.5 + libmatroska v1.4.5
    Видео
    Идентификатор : 1
    Формат : AVC
    Формат/Информация : Advanced Video Codec
    Профиль формата : High@L3.1
    Параметр CABAC формата : Да
    Параметр RefFrames формата : 10 кадров
    Идентификатор кодека : V_MPEG4/ISO/AVC
    Продолжительность : 1 ч. Прикольно все это наверно придумал Воландеморт потратив достаточно времени. 42 м.
    Битрейт : 2343 Кбит/сек
    Ширина : 720 пикселей
    Высота : 408 пикселей
    Соотношение сторон : 16: 9
    Режим частоты кадров : Постоянный
    Частота кадров : 50, 000 кадров/сек
    Цветовое пространство : YUV
    Субдискретизация насыщенности : 4: 2: 0
    Битовая глубина : 8 бит
    Тип развёртки : Прогрессивная
    Бит/(Пиксели*Кадры) : 0.160
    Размер потока : 1, 68 Гбайт (92%)
    Библиотека кодирования : x264 core 152 r2851 ba24899
    Настройки программы : cabac=1/ref=10/deblock=1: 0: 0/analyse=0x3: 0x133/me=umh/subme=9/psy=1/psy_rd=1.00: 0.10/mixed_ref=1/me_range=16/chroma_me=1/trellis=2/8x8dct=1/cqm=0/deadzone=21, 11/fast_pskip=0/chroma_qp_offset=-3/threads=13/lookahead_threads=1/sliced_threads=0/nr=0/decimate=1/interlaced=0/bluray_compat=0/constrained_intra=0/bframes=6/b_pyramid=2/b_adapt=2/b_bias=0/direct=3/weightb=1/open_gop=0/weightp=2/keyint=250/keyint_min=25/scenecut=40/intra_refresh=0/rc_lookahead=50/rc=crf/mbtree=1/crf=19.0/qcomp=0.60/qpmin=0/qpmax=69/qpstep=4/ip_ratio=1.40/aq=1: 1.00
    Default : Да
    Forced : Нет
    Аудио
    Идентификатор : 2
    Формат : AAC
    Формат/Информация : Advanced Audio Codec
    Профиль формата : LC
    Идентификатор кодека : A_AAC
    Продолжительность : 1 ч. 42 м.
    Битрейт : 192 Кбит/сек
    Каналы : 2 канала
    Расположение каналов : Front: L R
    Частота : 48, 0 КГц
    Частота кадров : 46, 875 кадров/сек (1024 SPF)
    Метод сжатия : С потерями
    Размер потока : 141 Мбайт (8%)
    Язык : Ukrainian
    Default : Да
    Forced : Нет

    Скриншоты для ознакомления



    Футбол. Чемпионат Мира 2018 в Клубе
    Время раздачи: 24/7 (до 1 месяца)

    Футбол. Чемпионат Мира 2018. Отборочный турнир. Европа. Группа I. 7-й тур. Украина – Турция (02.09.2017) WEB-DLRip [hand made 50fps] [UKR]
    загрузка...
    Рейтинг →
     (голосов: 1, оценка 3/5, голосовать можно 1 раз )

    Другие торренты по теме:

  • Футбол. Чемпионат Европы 2016. Группа D. 1-й тур. Испания - Чехия (13.06.2016) HDTVRip [H.264 / 1080p-LQ] (Матч Футбол 1 HD)
  • Футбол. Чемпионат Европы 2016. Группа E. 1-й тур. Ирландия - Швеция (13.06.2016) HDTVRip [H.264 / 1080p-LQ] (Матч Футбол 1 HD)
  • Футбол. Чемпионат Европы 2016. Группа E. 1-й тур. Бельгия - Италия (13.06.2016) HDTVRip [H.264 / 1080p-LQ] (Матч Футбол 1 HD)
  • Футбол. Чемпионат Европы 2016. Группа E. 1-й тур. Бельгия - Италия (13.06.2016) HDTV [H.264 / 1080i](Футбол 1 HD)
  • Футбол. Чемпионат Мира 2014. Финал. Германия - Аргентина (2014.07.13) HDTVRip [H.264 / 720p] [hand made 50fps]
  • Футбол. Чемпионат Мира 2014. Все голы (2014) HDTVRip [H.264 / 720p] [hand made 50fps]
  • Футбол. Чемпионат Мира 2014. Матч за 1-2 место. Финал. Германия – Аргентина + Награждение (2014.07.13) HDTV [H.264 / 1080i]
  • Футбол. Чемпионат Мира 2014. Матч за 1-2 место. Финал. Германия - Аргентина (2014.07.13) WEB-DL [H.264 / 720p-LQ]


    • Комментарии (0):

      Информация

      Информация

        Посетители, находящиеся в группе Гости, не могут оставлять комментарии в данной новости.

        ↓ Меню




        ↓ Опрос

        Вы добавили сайт в закладки?
        Да
        Нет


        Top 10 за месяц (Передачи)

        Павел Гуров | Цикл курсов Маркетинг в соц. сетях для фотографа (2016) CamRip [H.264 / 1080p]

        (скачиваний: 7)
        Школа готовит прислугу! (2016) WEB-DLRip [H.264 / 1080i-LQ]

        (скачиваний: 6)
        Айрэн По, Джули По | Нумерология, как профессия. Мы из матрицы. Книга 1 (2016) [DJVU]

        (скачиваний: 5)
        Вести в субботу с Сергеем Брилевым (22.10.2016) SATRip

        (скачиваний: 5)
        Алексей Кузьмичев | Магия цвета. Курс по цветокоррекции в Adobe Photoshop (2016) PCRec [H.264]

        (скачиваний: 4)
        Франциска Вудворт | Дыхание жизни (2017) [FB2]

        (скачиваний: 4)
        Рыбалка с Алексеем Фадеевым. Весенний карп (2014) WEBRip скачать через торрент бесплатно

        (скачиваний: 4)
        Мое Советское Детство. Моя Советская Юность (2014-2015) TVRip [H.264] (части 1-2 из 2)

        (скачиваний: 3)
        Мастерская «Фантом Уоркс» / FantomWorks (2014) HDTVRip [Rus] [AVC / 1080i] (сезон 2, серии 1-6 из 7)

        (скачиваний: 3)
        Футбол. РФПЛ Чемпионат России 2017-2018. 1-й тур. Анжи (Махачкала) — ЦСКА (Москва) (15.07.2017) WEB-DL [H.264 / 720p-LQ]

        (скачиваний: 3)