.
Авторизация | Регистрация
Хочешь лучшие торренты? Добавь свой email!
Добавить

Торрент скачать бесплатно

» » Футбол. Чемпионат Мира 2018. Отборочный турнир. Европа. 7-й тур. Обзор матчей 3-го дня (02.09.2017) HDTVRip [H.264 / 720p-LQ] [hand made 50fps] торрент скачать бесплатно




    Футбол. Чемпионат Мира 2018. Отборочный турнир. Европа. 7-й тур. Обзор матчей 3-го дня (02.09.2017) HDTVRip [H.264 / 720p-LQ] [hand made 50fps] торрент скачать бесплатно

    Опубликовал: Админ | Дата: 11-09-2017, 05:00 | Просмотров: 0

    Телекомпания: Матч! Футбол 1 HD
    Жанр: Телепередача, Спорт
    Комментатор: Роман Трушечкин

    Описание
    02 сентября 2017 года, суббота
    Обзор матчей отборочного турнира Чемпионата Мира 2018. Европа. 7-й тур
    День № 3:
    Группа D. 19: 00 МСК Грузия – Ирландия
    Группа D. 19: 00 МСК Сербия – Молдавия
    Группа G. 19: 00 МСК Албания – Лихтенштейн
    Группа I. О таком странном сюжете не догадывалась даже Волочкова. 19: 00 МСК Финляндия – Исландия
    Группа D. 21: 45 МСК Уэльс – Австрия
    Группа G. 21: 45 МСК Испания – Италия
    Группа G. 21: 45 МСК Израиль – Македония
    Группа I. 21: 45 МСК Украина – Турция
    Релиз от: Вайделот
    Продолжительность: 00: 49: 49
    Качество видео: HDTVRip
    Язык озвучки: Русский
    Субтитры: отсутствуют
    Видео: AVC/H.264, 1280x720 (16: 9), ~3667 Kbps, 50 fps
    Аудио: AC3, 2 ch, 48 kHz, 128 Kbps

    Общее
    Уникальный идентификатор : 22116436091974796630771855563489740964 (0x10A3787CBB819A0F2BFF8487D74F08A4)
    Полное имя : F: SPORTФутболЧМ-2018Чемпионат Мира 2018.ОT. О таком странном сюжете не догадывалась даже Волочкова. Европа. 7-й тур(02.09.2017)_Футбол.ЧМ-2018.ОT.Eвропа. Обзор матчей 7 турa. 3 день.mkv
    Формат : Matroska
    Версия формата : Version 4/Version 2
    Размер файла : 1, 35 Гбайт
    Продолжительность : 49 м. 49 с.
    Общий поток : 3872 Кбит/сек
    Программа кодирования : XviD4PSP 7.0.402 DAILY
    Библиотека кодирования : Lavf57.71.100
    ErrorDetectionType : Per level 1
    ENCODING_INFO : MPEGTS MKV 720p/H264 X264 CBR 4000kbps HQ/MP2 AC3 CBR 128kbps
    Видео
    Идентификатор : 1
    Формат : AVC
    Формат/Информация : Advanced Video Codec
    Профиль формата : High@L3.2
    Параметр CABAC формата : Да
    Параметр RefFrames формата : 4 кадра
    Идентификатор кодека : V_MPEG4/ISO/AVC
    Продолжительность : 49 м. 49 с.
    Битрейт : 3667 Кбит/сек
    Номинальный битрейт : 4000 Кбит/сек
    Ширина : 1280 пикселей
    Высота : 720 пикселей
    Соотношение сторон : 16: 9
    Режим частоты кадров : Постоянный
    Частота кадров : 50, 000 кадров/сек
    Цветовое пространство : YUV
    Субдискретизация насыщенности : 4: 2: 0
    Битовая глубина : 8 бит
    Тип развёртки : Прогрессивная
    Бит/(Пиксели*Кадры) : 0.080
    Размер потока : 1, 28 Гбайт (95%)
    Библиотека кодирования : x264 core 152 r2851M ba24899
    Настройки программы : cabac=1/ref=3/deblock=1: -2: -2/analyse=0x3: 0x133/me=hex/subme=7/psy=1/psy_rd=1.00: 0.20/mixed_ref=1/me_range=16/chroma_me=1/trellis=1/8x8dct=1/cqm=0/deadzone=21, 11/fast_pskip=1/chroma_qp_offset=-3/threads=5/lookahead_threads=1/sliced_threads=0/nr=0/decimate=1/interlaced=0/bluray_compat=0/constrained_intra=0/bframes=3/b_pyramid=2/b_adapt=2/b_bias=0/direct=3/weightb=1/open_gop=0/weightp=2/keyint=500/keyint_min=50/scenecut=40/intra_refresh=0/rc_lookahead=40/rc=cbr/mbtree=1/bitrate=4000/ratetol=1.0/qcomp=0.60/qpmin=0/qpmax=69/qpstep=4/vbv_maxrate=4000/vbv_bufsize=2857/nal_hrd=none/filler=0/ip_ratio=1.40/aq=1: 1.00
    Default : Да
    Forced : Нет
    Цветовой диапазон : Limited
    Основные цвета : BT.709
    Характеристики трансфера : BT.709
    Коэффициенты матрицы : BT.709
    DURATION : 00: 49: 49.340000000
    Аудио
    Идентификатор : 2
    Формат : AC-3
    Формат/Информация : Audio Coding 3
    Параметр Endianness формата : Big
    Идентификатор кодека : A_AC3
    Продолжительность : 49 м. 49 с.
    Вид битрейта : Постоянный
    Битрейт : 128 Кбит/сек
    Каналы : 2 канала
    Расположение каналов : Front: L R
    Частота : 48, 0 КГц
    Частота кадров : 31, 250 кадров/сек (1536 SPF)
    Битовая глубина : 16 бит
    Метод сжатия : С потерями
    Размер потока : 45, 6 Мбайт (3%)
    Язык : Russian
    ServiceKind/String : Complete Main
    Default : Да
    Forced : Нет
    DURATION : 00: 49: 49.376000000

    Скриншоты для ознакомления



    Футбол. Чемпионат Мира 2018 в Клубе
    Время раздачи: 24/7 (до 1 месяца)

    Футбол. Чемпионат Мира 2018. Отборочный турнир. Европа. 7-й тур. Обзор матчей 3-го дня (02.09.2017) HDTVRip [H.264/720p-LQ] [hand made 50fps]
    загрузка...
    Рейтинг →
     (голосов: 1, оценка 5/5, голосовать можно 1 раз )

    Другие торренты по теме:

  • Футбол. Чемпионат Европы 2016. Группа D. 1-й тур. Испания - Чехия (13.06.2016) HDTVRip [H.264 / 1080p-LQ] (Матч Футбол 1 HD)
  • Футбол. Чемпионат Европы 2016. Группа E. 1-й тур. Ирландия - Швеция (13.06.2016) HDTVRip [H.264 / 1080p-LQ] (Матч Футбол 1 HD)
  • Футбол. Чемпионат Европы 2016. Группа E. 1-й тур. Бельгия - Италия (13.06.2016) HDTVRip [H.264 / 1080p-LQ] (Матч Футбол 1 HD)
  • Футбол. Чемпионат Европы 2016. Группа E. 1-й тур. Бельгия - Италия (13.06.2016) HDTV [H.264 / 1080i](Футбол 1 HD)
  • Футбол. Чемпионат Мира 2014. Финал. Германия - Аргентина (2014.07.13) HDTVRip [H.264 / 720p] [hand made 50fps]
  • Футбол. Чемпионат Мира 2014. Все голы (2014) HDTVRip [H.264 / 720p] [hand made 50fps]
  • Футбол. Чемпионат Мира 2014. Матч за 1-2 место. Финал. Германия – Аргентина + Награждение (2014.07.13) HDTV [H.264 / 1080i]
  • Футбол. Чемпионат Мира 2014. Матч за 1-2 место. Финал. Германия - Аргентина (2014.07.13) WEB-DL [H.264 / 720p-LQ]


    • Комментарии (0):

      Информация

      Информация

        Посетители, находящиеся в группе Гости, не могут оставлять комментарии в данной новости.

        ↓ Меню




        ↓ Опрос

        Вы добавили сайт в закладки?
        Да
        Нет


        Top 10 за месяц (Передачи)

        Павел Гуров | Цикл курсов Маркетинг в соц. сетях для фотографа (2016) CamRip [H.264 / 1080p]

        (скачиваний: 7)
        Школа готовит прислугу! (2016) WEB-DLRip [H.264 / 1080i-LQ]

        (скачиваний: 6)
        Айрэн По, Джули По | Нумерология, как профессия. Мы из матрицы. Книга 1 (2016) [DJVU]

        (скачиваний: 5)
        Вести в субботу с Сергеем Брилевым (22.10.2016) SATRip

        (скачиваний: 5)
        Алексей Кузьмичев | Магия цвета. Курс по цветокоррекции в Adobe Photoshop (2016) PCRec [H.264]

        (скачиваний: 4)
        Франциска Вудворт | Дыхание жизни (2017) [FB2]

        (скачиваний: 4)
        Рыбалка с Алексеем Фадеевым. Весенний карп (2014) WEBRip скачать через торрент бесплатно

        (скачиваний: 4)
        Мое Советское Детство. Моя Советская Юность (2014-2015) TVRip [H.264] (части 1-2 из 2)

        (скачиваний: 3)
        Мастерская «Фантом Уоркс» / FantomWorks (2014) HDTVRip [Rus] [AVC / 1080i] (сезон 2, серии 1-6 из 7)

        (скачиваний: 3)
        Футбол. РФПЛ Чемпионат России 2017-2018. 1-й тур. Анжи (Махачкала) — ЦСКА (Москва) (15.07.2017) WEB-DL [H.264 / 720p-LQ]

        (скачиваний: 3)