.
Авторизация | Регистрация
Хочешь лучшие торренты? Добавь свой email!
Добавить

Торрент скачать бесплатно

» » Moto GP. Сезон 2017. Octo British Grand Prix. Этап 13. Гонка (10.09.2017) WEB-DL [H.264 / 720p-LQ] [VO] торрент скачать бесплатно




    Moto GP. Сезон 2017. Octo British Grand Prix. Этап 13. Гонка (10.09.2017) WEB-DL [H.264 / 720p-LQ] [VO] торрент скачать бесплатно

    Опубликовал: Админ | Дата: 11-09-2017, 05:00 | Просмотров: 0

    Телекомпания: BT Sport 2 HD
    Жанр: Спорт

    Описание

    Чемпионат мира по шоссейно-кольцевым мотогонкам Гран-при, также MotoGP (англ. FIM Road Racing World Championship Grand Prix) — главное престижное соревнование по шоссейно-кольцевым мотогонкам на гоночных мотоциклах. В настоящее время чемпионат разделен на три класса: MotoGP, Moto2 и Moto3. Все три класса используют специальные мотоциклы-прототипы, которые отсутствуют в свободной продаже и не разрешены к эксплуатации на дорогах общего пользования. Коммерческие права на чемпионат принадлежат международной компании Dorna Sports S.L.
    ВНИМАНИЕ! В записи присутствуют небольшие проблемы с телевизионной картинкой, связанные с плохим качеством спутникового сигнала из-за погодных условий.
    Релиз от:
    Продолжительность: 01: 33: 55
    Качество видео: HDTVRip
    Перевод: Одноголосый закадровый, любительский
    Язык: Русский
    Видео: AVC/H.264, 1280х720, ~4303 Kbps
    Аудио: AAC, 2 ch, 320 Kbps

    General
    Complete name : E: Записи телевизионных шоуРазноеMotoGP. Сезон 2017. Этап 13 — Gran Premio Tribul Mastercard di San Marino. Гонка, 10.09.2017 Русская озвучка, 545TV, A21 Network.mp4
    Format : MPEG-4
    Format profile : Base Media
    Codec ID : isom (isom/iso2/avc1/mp41)
    File size : 3.04 GiB
    Duration : 1 h 33 min
    Overall bit rate : 4 630 kb/s
    Writing application : Lavf57.40.101
    Video
    ID : 1
    Format : AVC
    Format/Info : Advanced Video Codec
    Format profile : Main@L3.1
    Format settings, CABAC : Yes
    Format settings, ReFrames : 2 frames
    Format settings, GOP : M=1, N=15
    Codec ID : avc1
    Codec ID/Info : Advanced Video Coding
    Duration : 1 h 33 min
    Bit rate : 4 303 kb/s
    Width : 1 280 pixels
    Height : 720 pixels
    Display aspect ratio : 16: 9
    Frame rate mode : Constant
    Frame rate : 29.970 (30000/1001) FPS
    Color space : YUV
    Chroma subsampling : 4: 2: 0
    Bit depth : 8 bits
    Scan type : Progressive
    Bits/(Pixel*Frame) : 0.156
    Stream size : 2.82 GiB (93%)
    Audio
    ID : 2
    Format : AAC
    Format/Info : Advanced Audio Codec
    Format profile : LC
    Codec ID : 40
    Duration : 1 h 33 min
    Bit rate mode : Constant
    Bit rate : 320 kb/s
    Channel(s) : 2 channels
    Channel positions : Front: L R
    Sampling rate : 44.1 kHz
    Frame rate : 43.066 FPS (1024 spf)
    Compression mode : Lossy
    Stream size : 215 MiB (7%)
    Default : Yes
    Alternate group : 1

    Скриншоты для ознакомления



    Все одноименные релизы в Клубе
    Время раздачи: с 10.00 до 0.00 (до появления первых 3-5 скачавших)

    Moto GP. Сезон 2017. Octo British Grand Prix. Этап 13. Гонка (10.09.2017) WEB-DL [H.264/720p-LQ] [VO]
    загрузка...
    Рейтинг →
     (голосов: 1, оценка 5/5, голосовать можно 1 раз )

    Другие торренты по теме:

  • Moto GP. Сезон 2017. Losail International Circuit. Этап 1. Гонка (26.03.2017) HDTVRip [H.264 / 720p-LQ] [VO]
  • Moto GP. Сезон 2017. Termas de Rio Hondo. Этап 2. Гонка (9.04.2017) HDTVRip [H.264 / 720p-LQ] [VO]
  • Moto GP. Сезон 2017. Red Bull Grand Prix of The Americas. Этап 3. Гонка (23.04.2017) HDTVRip [H.264 / 720p-LQ] [VO]
  • Moto GP. Сезон 2017. Gran Premio Red Bull de Espana. Этап 4. Гонка (07.05.2017) HDTVRip [H.264 / 720p-LQ] [VO]
  • Moto GP. Сезон 2017. HJC Helmets Grand Prix de France. Этап 5. Гонка (21.05.2017) HDTVRip [H.264 / 720p-LQ] [VO]
  • Moto GP. Сезон 2017. Gran Premio dItalia Oakley. Этап 6. Гонка (04.06.2017) WEB-DL [H.264 / 720p-LQ] [VO]
  • Moto GP. Сезон 2017. Gran Premi Monster Energy de Catalunya. Этап 7. Гонка (11.06.2017) WEB-DL [H.264 / 720p-LQ] [VO]
  • Moto GP. Сезон 2017. GoPro Motorrad Grand Prix Deutschland. Этап 9. Гонка (02.07.2017) WEB-DL [H.264 / 720p-LQ] [VO]


    • Комментарии (0):

      Информация

      Информация

        Посетители, находящиеся в группе Гости, не могут оставлять комментарии в данной новости.

        ↓ Меню




        ↓ Опрос

        Вы добавили сайт в закладки?
        Да
        Нет


        Top 10 за месяц (Передачи)