.
Авторизация | Регистрация
Хочешь лучшие торренты? Добавь свой email!
Добавить

Торрент скачать бесплатно

» » Баскетбол. Чемпионат Европы 2017. Предварительный раунд. Группа A. 3-й тур. Словения – Греция (03.09.2017) WEB-DL [H.264 / 720p-LQ] [EN] торрент скачать бесплатно




    Баскетбол. Чемпионат Европы 2017. Предварительный раунд. Группа A. 3-й тур. Словения – Греция (03.09.2017) WEB-DL [H.264 / 720p-LQ] [EN] торрент скачать бесплатно

    Опубликовал: Админ | Дата: 11-09-2017, 05:00 | Просмотров: 0

    Жанр: Спорт

    Описание
    03 сентября 2017 года, воскресенье. 16: 30 МСК
    Чемпионат Европы по баскетболу 2017. Предварительный раунд
    Группа A. 3-й тур
    Словения – Греция
    Стадион: Хартвалл-Арена (Хельсинки, Финляндия), 4099 зрителей (34 % при вместимости 12000)
    Судьи: Кристиано Хесус Мараньо (Бразилия), Антонио Конде (Испания), Мартиньш Козловскис (Латвия)
    Релиз от: Sport.HD
    Продолжительность: 02: 04: 02
    Качество видео: WEB-DL
    Язык озвучки: Английский
    Субтитры: отсутствуют
    Видео: AVC/H.264, 1280x720 (16: 9), ~2331 Kbps
    Аудио: AAC, 2 ch, 128 Kbps
    Код: выделить все

    Общее
    Уникальный идентификатор : 244349589909399549040426676015530595586 (0xB7D404EAFB223AA5B7E6EB74DFA15502)
    Полное имя : F:SPORTБаскетболЧемпионат Европы-2017(03.09.2017)_FIBA.EuroBasket 2017.PR.Gr A.3t. Slovenia – Greece.mkv
    Формат : Matroska
    Версия формата : Version 4/Version 2
    Размер файла : 2, 13 Гбайт
    Продолжительность : 2 ч. 4 м.
    Общий поток : 2462 Кбит/сек
    Дата кодирования : UTC 2017-09-08 00:39:31
    Программа кодирования : mkvmerge v15.0.0 (\'Duel with the Devil\') 32-bit
    Библиотека кодирования : libebml v1.3.5 + libmatroska v1.4.5
    Видео
    Идентификатор : 1
    Формат : AVC
    Формат/Информация : Advanced Video Codec
    Профиль формата :Main@L4.1
    Параметр CABAC формата : Да
    Параметр RefFrames формата : 2 кадра
    Идентификатор кодека : V_MPEG4/ISO/AVC
    Продолжительность : 2 ч. 4 м.
    Битрейт : 2331 Кбит/сек
    Ширина : 1280 пикселей
    Высота : 720 пикселей
    Соотношение сторон : 16:9
    Режим частоты кадров : Постоянный
    Частота кадров : 25, 000 кадров/сек
    Стандарт вещания : PAL
    Цветовое пространство : YUV
    Субдискретизация насыщенности : 4:2:0
    Битовая глубина : 8 бит
    Тип развёртки : Прогрессивная
    Бит/(Пиксели*Кадры) : 0.101
    Размер потока : 2, 02 Гбайт (95%)
    Default : Да
    Forced : Нет
    Цветовой диапазон : Limited
    Аудио
    Идентификатор : 2
    Формат : AAC
    Формат/Информация : Advanced Audio Codec
    Профиль формата : LC
    Идентификатор кодека : A_AAC
    Продолжительность : 2 ч. 4 м.
    Битрейт : 128 Кбит/сек
    Каналы : 2 канала
    Расположение каналов : Front: L R
    Частота : 44, 1 КГц
    Частота кадров : 43, 066 кадра/сек (1024 SPF)
    Метод сжатия : С потерями
    Размер потока : 114 Мбайт (5%)
    Язык : English
    Default : Да
    Forced : Нет

    Скриншоты для ознакомления



    Все одноименные релизы в Клубе
    Время раздачи: 24/7 (до появления первых 3-5 скачавших)

    Баскетбол. Чемпионат Европы 2017. Предварительный раунд. Группа A. 3-й тур. Словения – Греция (03.09.2017) WEB-DL [H.264/720p-LQ] [EN]
    загрузка...
    Рейтинг →
     (голосов: 1, оценка 5/5, голосовать можно 1 раз )

    Другие торренты по теме:

  • Баскетбол. Чемпионат Европы-2017. Мужчины. Отборочный турнир. Группа C. 1-й тур. Россия — Босния и Герцеговина (31.08.2016) HDTV [H.264 / 1080i]
  • Баскетбол. Чемпионат Европы-2017. Мужчины. Отборочный турнир. Группа C. 1-й тур. Россия — Босния и Герцеговина (31.08.2016) HDTVRip [H.264 / 720p-LQ]
  • Баскетбол. Чемпионат Европы-2017. Мужчины. Отборочный турнир. Группа C. 1-й тур. Россия — Босния и Герцеговина (31.08.2016) WEB-DL [H.264 / 720p-LQ]
  • Баскетбол. Чемпионат Европы-2017. Мужчины. Отборочный турнир. Группа C. 2-й тур. Швеция - Россия (07.09.2016) HDTVRip [H.264 / 720p-LQ][hand made 50fps]
  • Баскетбол. Чемпионат Европы-2017. Мужчины. Отборочный турнир. 2-й тур. Швеция - Россия (07.09.2016) HDTV [H.264 / 1080i][RU / IN]
  • Баскетбол. Чемпионат Европы-2017. Мужчины. Отборочный турнир. Группа C. 2-й тур. Швеция - Россия (07.09.2016) WEB-DL [H.264 / 720p-LQ]
  • Баскетбол. Чемпионат Европы-2017. Мужчины. Отборочный турнир. Группа C. 3-й тур. Босния и Герцеговина - Россия (10.09.2016) WEB-DLRip [H.264 / 720p-LQ]
  • Баскетбол. Чемпионат Европы-2017. Мужчины. Отборочный турнир. Группа C. 4-й тур. Россия - Швеция (17.09.2016) HDTVRip [H.264 / 720p-LQ][hand made 50fps]


    • Комментарии (0):

      Информация

      Информация

        Посетители, находящиеся в группе Гости, не могут оставлять комментарии в данной новости.

        ↓ Меню




        ↓ Опрос

        Вы добавили сайт в закладки?
        Да
        Нет


        Top 10 за месяц (Передачи)