.
Авторизация | Регистрация
Хочешь лучшие торренты? Добавь свой email!
Добавить

Торрент скачать бесплатно

» » Круизные лайнеры - рай в океане / Dream Cruise (2011) DVB (Сезон 1, серии 1-15 из 15) торрент скачать бесплатно




    Круизные лайнеры - рай в океане / Dream Cruise (2011) DVB (Сезон 1, серии 1-15 из 15) торрент скачать бесплатно

    Опубликовал: Админ | Дата: 25-07-2017, 05:00 | Просмотров: 3

    Телекомпания: Канада/Quebec
    Жанр: Документальный, Природа, Путешествия
    Участники: Paul Codieux

    Описание

    Морские круизы стали весьма популярным видом отдыха во всем мире. За последние несколько лет более семи миллионов туристов провели свои отпуска на круизных лайнерах, и чаще всего их количество продолжает расти. Об этом увлекательном способе отдохнуть и посмотреть мир расскажет сериал Круизные лайнеры – рай в океане. Каждая серия программы посвящена отдельному круизу на одном из лайнеров. Бразилия, Карибские острова, Панамский канал, Мексика, Гавайи, Средиземное и Черное моря – это далеко не полная география мест, в которых мы побываем. Зрителей ожидает увлекательная экскурсия по всем палубам: их взору предстанет роскошь кают для гостей, изысканная атмосфера ресторанов, залитые солнцем палубы и все мыслимые и немыслимые развлечения, которые доступны на этих огромных судах.
    Продолжительность: ~00: 44: 00 (серия)
    Качество видео: DVB
    Перевод: Одноголосый закадровый, профессиональный
    Субтитры: Отсутствуют
    Видео: MPEG-2, 720х576@768x576, ~2579 kbps
    Аудио: MP2, 2 ch, 160 Kbps

    Общее
    Идентификатор : 16 (0x10)
    Полное имя : 01_Dream Cruises_Allure of the Seas.ts
    Формат : MPEG-TS
    Размер файла : 924 Мбайт
    Продолжительность : 44 м. 48 с.
    Режим общего битрейта : Переменный
    Общий поток : 2883 Кбит/сек
    Видео
    Идентификатор : 3108 (0xC24)
    Идентификатор меню : 1108 (0x454)
    Формат : MPEG Video
    Версия формата : Version 2
    Профиль формата : Main@Main
    Параметр BVOP формата : Да
    Параметр матрицы формата : Выборочная
    Параметр GOP формата : Variable
    Структура изображения : Frame
    Идентификатор кодека : 2
    Продолжительность : 44 м. 48 с.
    Вид битрейта : Переменный
    Битрейт : 2579 Кбит/сек
    Максимальный битрейт : 15, 0 Мбит/сек
    Ширина : 720 пикселей
    Высота : 576 пикселей
    Соотношение сторон : 4: 3
    Частота кадров : 25, 000 кадров/сек
    Стандарт вещания : PAL
    Цветовое пространство : YUV
    Субдискретизация насыщенности : 4: 2: 0
    Битовая глубина : 8 бит
    Тип развёртки : Чересстрочная
    Порядок развёртки : Верхнее поле первое
    Метод сжатия : С потерями
    Бит/(Пиксели*Кадры) : 0.249
    Размер потока : 827 Мбайт (89%)
    Аудио
    Идентификатор : 4108 (0x100C)
    Идентификатор меню : 1108 (0x454)
    Формат : MPEG Audio
    Версия формата : Version 1
    Профиль формата : Layer 2
    Идентификатор кодека : 4
    Продолжительность : 44 м. 48 с.
    Вид битрейта : Постоянный
    Битрейт : 160 Кбит/сек
    Каналы : 2 канала
    Частота : 48, 0 КГц
    Метод сжатия : С потерями
    Задержка видео : 10 мс.
    Размер потока : 51, 3 Мбайт (6%)
    Язык : std
    Язык, дополнительно : Clean effects


    Скриншоты для ознакомления




    Круизные лайнеры - рай в океане/Dream Cruise (2011) DVB (Сезон 1, серии 1-15 из 15)
    загрузка...
    Рейтинг →
     (голосов: 1, оценка 3/5, голосовать можно 1 раз )

    Другие торренты по теме:



      Комментарии (0):

      Информация

      Информация

        Посетители, находящиеся в группе Гости, не могут оставлять комментарии в данной новости.

        ↓ Меню




        ↓ Опрос

        Вы добавили сайт в закладки?
        Да
        Нет


        Top 10 за месяц (Передачи)