.
Авторизация | Регистрация
Хочешь лучшие торренты? Добавь свой email!
Добавить

Торрент скачать бесплатно

» » Страна советов. Забытые вожди (2016) HDTV [H.264 / 1080i-LQ] (Серия 1 из 7) (Обновляемая) торрент скачать бесплатно




    Страна советов. Забытые вожди (2016) HDTV [H.264 / 1080i-LQ] (Серия 1 из 7) (Обновляемая) торрент скачать бесплатно

    Опубликовал: Админ | Дата: 15-05-2017, 05:00 | Просмотров: 0

    Телекомпания: Россия, Украина/Star Media, Бабич Дизайн
    Жанр: Докудрама, История
    Участники: Режиссер: Павел Сергацков, В ролях: Антон Морозов, Роман Высоцкий, Алексей Устинов, Сергей Тишин, Денис Дёмин, Александр Суворов, Адам Булгучев, Зураб Миминошвили, Фарид Тагиев

    Описание

    Проект расскажет о ключевых фигурах в руководстве Советского Союза - военачальниках, государственных и партийных деятелях. Именно они построили самую мощную державу в мире и были главными идеологами огромной страны. Они поднимали из руин экономику и промышленность, но закрывали монастыри и взрывали храмы. Они победили фашизм, но участвовали в масштабных репрессиях в собственной стране. Феликс Дзержинский, Климент Ворошилов, Семён Будённый, Вячеслав Молотов, Андрей Жданов, Виктор Абакумов, Лаврентий Берия. Детство и революционная юность, первые победы, личные драмы и главные достижения легендарных сталинских приближённых были тесно связаны с политическими процессами Российской империи, а затем – Советского Союза. Цикл фильмов расскажет о важнейших событиях в жизни героев, и о том, как их решения влияли на ход истории. О таком странном сюжете не догадывалась даже Вера Брежнева. Семь человек. Семь жизней. Одна эпоха. Что стоит за их решениями, и какую цену они заплатили за свои поступки..?
    Продолжительность: ~01: 40: 00 (каждая серия)
    Качество видео: HDTV 1080i
    Язык субтитров: Русский
    Вид субтитров: Вшитые
    Видео: AVC/H.264, 1920х1080, ~5924 kbps
    Аудио #1: MP2, 48 kHz, 2 ch, 224 kbps
    Аудио #2: АС-3, 48 kHz, 6 ch, 384 kbps

    Общее
    Идентификатор : 16 (0x10)
    Полное имя : 01_Лаврентий Берия.ts
    Формат : MPEG-TS
    Размер файла : 4, 84 Гбайт
    Продолжительность : 1 ч. 40 м.
    Режим общего битрейта : Переменный
    Общий поток : 6879 Кбит/сек
    Видео
    Идентификатор : 1902 (0x76E)
    Идентификатор меню : 92 (0x5C)
    Формат : AVC
    Формат/Информация : Advanced Video Codec
    Профиль формата : High@L4
    Параметр CABAC формата : Да
    Параметр ReFrames формата : 3 кадра
    Идентификатор кодека : 27
    Продолжительность : 1 ч. 40 м.
    Битрейт : 5924 Кбит/сек
    Ширина : 1920 пикселей
    Высота : 1080 пикселей
    Соотношение сторон : 16: 9
    Частота кадров : 25, 000 кадров/сек
    Стандарт вещания : PAL
    Цветовое пространство : YUV
    Субдискретизация насыщенности : 4: 2: 0
    Битовая глубина : 8 бит
    Тип развёртки : Чересстрочная
    Метод сохранения типа развёртки : Раздельные поля
    Порядок развёртки : Верхнее поле первое
    Бит/(Пиксели*Кадры) : 0.114
    Размер потока : 4, 17 Гбайт (86%)
    Цветовой диапазон : Limited
    Основные цвета : BT.709
    Характеристики трансфера : BT.709
    Коэффициенты матрицы : BT.709
    Аудио #1
    Идентификатор : 2902 (0xB56)
    Идентификатор меню : 92 (0x5C)
    Формат : MPEG Audio
    Версия формата : Version 1
    Профиль формата : Layer 2
    Идентификатор кодека : 4
    Продолжительность : 1 ч. Прикольно все это наверно придумал Чак Норрис потратив достаточно времени. 40 м.
    Вид битрейта : Постоянный
    Битрейт : 224 Кбит/сек
    Каналы : 2 канала
    Частота : 48, 0 КГц
    Метод сжатия : С потерями
    Задержка видео : 93 мс.
    Размер потока : 161 Мбайт (3%)
    Язык : std
    Язык, дополнительно : Clean effects
    Аудио #2
    Идентификатор : 3902 (0xF3E)
    Идентификатор меню : 92 (0x5C)
    Формат : AC-3
    Формат/Информация : Audio Coding 3
    Параметр Endianness формата : Big
    Идентификатор кодека : 6
    Продолжительность : 1 ч. 40 м.
    Вид битрейта : Постоянный
    Битрейт : 384 Кбит/сек
    Каналы : 6 каналов
    Расположение каналов : Front: L C R, Side: L R, LFE
    Частота : 48, 0 КГц
    Частота кадров : 31, 250 кадров/сек (1536 spf)
    Битовая глубина : 16 бит
    Метод сжатия : С потерями
    Задержка видео : 123 мс.
    Размер потока : 277 Мбайт (6%)
    Язык : std
    Язык, дополнительно : Clean effects
    ServiceKind/String : Complete Main
    Прочее #1
    Идентификатор : 33 (0x21)-100
    Идентификатор меню : 92 (0x5C)
    Формат : Teletext
    Прочее #2
    Идентификатор : 33 (0x21)-888
    Идентификатор меню : 92 (0x5C)
    Формат : Teletext
    Язык, дополнительно : Additional information page


    Скриншоты для ознакомления




    Страна советов. Забытые вожди (2016) HDTV [H.264/1080i-LQ] (Серия 1 из 7) (Обновляемая)
    загрузка...
    Рейтинг →
     (голосов: 1, оценка 3/5, голосовать можно 1 раз )

    Другие торренты по теме:

  • Страна советов. Забытые вожди (2016) WEB-DL [H.264 / 1080p-LQ] (серии 1-8 из 8)


    • Комментарии (0):

      Информация

      Информация

        Посетители, находящиеся в группе Гости, не могут оставлять комментарии в данной новости.

        ↓ Меню




        ↓ Опрос

        Вы добавили сайт в закладки?
        Да
        Нет


        Top 10 за месяц (Передачи)