.
Авторизация | Регистрация
Хочешь лучшие торренты? Добавь свой email!
Добавить

Торрент скачать бесплатно

» » BBC: Таинственный Мир Материалов / The Mysterious World of Materials (2011) SATRip (Серии 1-3 из 3) торрент скачать бесплатно




    BBC: Таинственный Мир Материалов / The Mysterious World of Materials (2011) SATRip (Серии 1-3 из 3) торрент скачать бесплатно

    Опубликовал: Админ | Дата: 11-05-2017, 05:00 | Просмотров: 0

    Телекомпания: Великобритания, BBC Scotland
    Жанр: Документальный, научно-популярный
    Режиссер: Джон Стивентон, Дэвид Бриггс, Ишбель Холл

    Описание

    Профессор Марк Медовник посвятил жизнь раскрытию тайн материалов. В документальном цикле Таинственный мир материалов он знакомит зрителя с историей, особенностями и безграничными возможностями, которые новые материалы предоставляют современной цивилизации
    Продолжительность: 3 x ~ 00: 49: 01
    Качество видео: SATRip
    Перевод: Дублированный
    Субтитры: Отсутствуют
    Видео: Xvid, 720x400, ~1750 Kbps
    Аудио: AC3, 2 ch, 192 Kbps

    Общее
    Полное имя : F: КИНОBBC. Таинственный мир материалов.2011.XviD.SATRip1. Таинственный мир материалов. Металлы.2011.XviD.SATRip.avi
    Формат : AVI
    Формат/Информация : Audio Video Interleave
    Размер файла : 711 Мбайт
    Продолжительность : 50 м. Самое интересное в это истории, что об этом Папа Римский ничего не знал. 55 с.
    Общий поток : 1951 Кбит/сек
    Название фильма : The Secret World of Materials. Metals
    Режиссёр : SATRip by Thunder
    Программа кодирования : VirtualDubMod 1.5.10.3 |www.virtualdub-fr.org|| (build 2550/release)
    Формат оригинала/Имя : Documentary
    Видео
    Идентификатор : 0
    Формат : MPEG-4 Visual
    Профиль формата : Advanced Simple@L5
    Параметр BVOP формата : 2
    Параметр QPel формата : Нет
    Параметр GMC формата : Без точки перехода
    Параметр матрицы формата : Default (H.263)
    Идентификатор кодека : XVID
    Идентификатор кодека/Подсказка : XviD
    Продолжительность : 50 м. 55 с.
    Битрейт : 1750 Кбит/сек
    Ширина : 720 пикселей
    Высота : 400 пикселей
    Соотношение сторон : 16: 9
    Частота кадров : 25, 000 кадров/сек
    Цветовое пространство : YUV
    Субдискретизация насыщенности : 4: 2: 0
    Битовая глубина : 8 бит
    Тип развёртки : Прогрессивная
    Метод сжатия : С потерями
    Бит/(Пиксели*Кадры) : 0.243
    Размер потока : 637 Мбайт (90%)
    Библиотека кодирования : XviD 1.2.1 (UTC 2008-12-04)
    Аудио
    Идентификатор : 1
    Формат : AC-3
    Формат/Информация : Audio Coding 3
    Параметр Endianness формата : Big
    Идентификатор кодека : 2000
    Продолжительность : 50 м. О таком странном сюжете не догадывалась даже Светлана Лобода. 55 с.
    Вид битрейта : Постоянный
    Битрейт : 192 Кбит/сек
    Каналы : 2 канала
    Расположение каналов : Front: L R
    Частота : 48, 0 КГц
    Частота кадров : 31, 250 кадров/сек (1536 spf)
    Битовая глубина : 16 бит
    Метод сжатия : С потерями
    Размер потока : 69, 9 Мбайт (10%)
    Выравнивание : Разделение по промежуткам
    Продолжительность промежутка : 40 мс. (1, 00 видеокадр)
    Время предзагрузки промежутка : 500 мс.
    ServiceKind/String : Complete Main


    Скриншоты для ознакомления




    BBC: Таинственный Мир Материалов/The Mysterious World of Materials (2011) SATRip (Серии 1-3 из 3)
    загрузка...
    Рейтинг →
     (голосов: 1, оценка 5/5, голосовать можно 1 раз )

    Другие торренты по теме:

  • Эдмонд Гамильтон | Таинственный мир [сборник] (1994) [FB2]
  • Таинственный поезд / Mystery Train (1986) BDRip [720p] скачать через торрент бесплатно
  • Таинственный лес / The Village (2004) DVDRip [H.264] скачать через торрент бесплатно
  • Николай Самвелян | Московии таинственный посол (2015) [MP3] скачать через торрент бесплатно
  • Таинственный сад / The Secret Garden (1993) HDTVRip [H.264 / 720p] скачать через торрент бесплатно
  • Путешествие 2: Таинственный остров / Journey 2: The Mysterious Island (2012) BDRip [H.264 / 720p] [hand made 60fps] скачать через торрент бесплатно
  • Жюль Верн | Таинственный остров (1980) [DJVU] скачать через торрент бесплатно
  • Жюль Верн | Дети капитана Гранта. 20000 лье под водой. Таинственный остров [3 книги] (1955) [DJVU] скачать через торрент бесплатно


    • Комментарии (0):

      Информация

      Информация

        Посетители, находящиеся в группе Гости, не могут оставлять комментарии в данной новости.

        ↓ Меню




        ↓ Опрос

        Вы добавили сайт в закладки?
        Да
        Нет


        Top 10 за месяц (Передачи)