.
Авторизация | Регистрация
Хочешь лучшие торренты? Добавь свой email!
Добавить

Торрент скачать бесплатно

» » Военная тайна с Игорем Прокопенко (2017.05.06) SATRip торрент скачать бесплатно



    Военная тайна с Игорем Прокопенко (2017.05.06) SATRip торрент скачать бесплатно

    Опубликовал: Админ | Дата: 7-05-2017, 05:00 | Просмотров: 0

    Телекомпания: РЕН
    Жанр: Документальный
    Ведущий: Игорь Прокопенко

    Описание

    Военная тайна — одна из старейших программ на нашем канале, которая имеет очень устойчивую аудиторию и которой нет аналогов на отечественном телевидении. Её содержание полностью соответствует интригующему названию: своими секретами с ведущим и корреспондентами программы делятся военные и политики, разведчики, шпионы и диверсанты, террористы и сотрудники спецслужб. Визитная карточка программы — это эксклюзивная информация, уникальные документы и видеосъемка. Объект исследования парадоксальные события, оставившие след в нашей истории, а также тайные пружины, которые подчас приводят в действие механизм обеспечения безопасности государства.
    Качество видео: SATRip
    Продолжительность: 03: 27: 28
    Субтитры: Отсутствуют
    Видео: MPEG4, XviD, 704x448 (1.571), 25.000 fps, 1 800 Kbps (0.228 bit/pixel)
    Аудио: MP3, 48.0 KHz, 2 ch, 128 Kbps, CBR
    Код: выделить все
    Общее
    Полное имя : D:[1]Военная тайнаВоенная тайна с Игорем Прокопенко (2017.05.06).avi
    Формат : AVI
    Формат/Информация : Audio Video Interleave
    Профиль формата : OpenDML
    Размер файла : 2, 81 Гбайт
    Продолжительность : 3 ч. 27 м.
    Общий поток : 1939 Кбит/сек
    Программа кодирования : VirtualDubMod 1.5.10.3 |www.virtualdub-fr.org|| (build 2550/release)
    Библиотека кодирования : VirtualDub build 35491/release
    Видео
    Идентификатор : 0
    Формат : MPEG-4 Visual
    Профиль формата : Advanced Simple@L5
    Параметр BVOP формата : 2
    Параметр QPel формата : Нет
    Параметр GMC формата : Без точки перехода
    Параметр матрицы формата : Default (H.263)
    Идентификатор кодека : XVID
    Идентификатор кодека/Подсказка : XviD
    Продолжительность : 3 ч. 27 м.
    Битрейт : 1800 Кбит/сек
    Ширина : 704 пикселя
    Высота : 448 пикселей
    Соотношение сторон : 16:10
    Частота кадров : 25, 000 кадров/сек
    Цветовое пространство : YUV
    Субдискретизация насыщенности : 4:2:0
    Битовая глубина : 8 бит
    Тип развёртки : Прогрессивная
    Метод сжатия : С потерями
    Бит/(Пиксели*Кадры) : 0.228
    Размер потока : 2, 61 Гбайт (93%)
    Библиотека кодирования : XviD 1.2.1 (UTC 2008-12-04)
    Аудио
    Идентификатор : 1
    Формат : MPEG Audio
    Версия формата : Version 1
    Профиль формата : Layer 3
    Режим : Joint stereo
    Расширение режима : MS Stereo
    Идентификатор кодека : 55
    Идентификатор кодека/Подсказка : MP3
    Продолжительность : 3 ч. 27 м.
    Вид битрейта : Постоянный
    Битрейт : 128 Кбит/сек
    Каналы : 2 канала
    Частота : 48, 0 КГц
    Метод сжатия : С потерями
    Размер потока : 190 Мбайт (7%)
    Выравнивание : Разделение по промежуткам
    Продолжительность промежутка : 40 мс. (1, 00 видеокадр)
    Время предзагрузки промежутка : 500 мс.


    Скриншоты для ознакомления



    Прямая ссылка скачивания через uTorrent


    Военная тайна с Игорем Прокопенко (2017.05.06) SATRip
    загрузка...
    Рейтинг →
     (голосов: 1, оценка 3/5, голосовать можно 1 раз )

    Другие торренты по теме:

  • Военная тайна с Игорем Прокопенко (27.09.2014) SATRip
  • Военная тайна с Игорем Прокопенко (2014.10.04) SATRip скачать через торрент бесплатно
  • Военная тайна с Игорем Прокопенко (2014.10.11) SATRip
  • Военная тайна с Игорем Прокопенко (2014.10.18) SATRip
  • Военная тайна с Игорем Прокопенко (2014.10.25) SATRip
  • Военная тайна с Игорем Прокопенко (2014.11.15) SATRip
  • Военная тайна с Игорем Прокопенко (2014.11.29) SATRip
  • Военная тайна с Игорем Прокопенко (2014.12.06) SATRip скачать через торрент бесплатно


    • Комментарии (0):

      Информация

      Информация

        Посетители, находящиеся в группе Гости, не могут оставлять комментарии в данной новости.

        ↓ Меню




        ↓ Опрос

        Вы добавили сайт в закладки?
        Да
        Нет


        Top 10 за месяц (Передачи)