.
Авторизация | Регистрация
Хочешь лучшие торренты? Добавь свой email!
Добавить

Торрент скачать бесплатно

» » BBC. Тайны взросления / Secret Life of Growing Up (2016) SATRip (Серии 1 из 2) (Обновляемая) торрент скачать бесплатно



    BBC. Тайны взросления / Secret Life of Growing Up (2016) SATRip (Серии 1 из 2) (Обновляемая) торрент скачать бесплатно

    Опубликовал: Админ | Дата: 7-05-2017, 05:00 | Просмотров: 0

    Производство: Великобритания, Oxford Scientific Films
    Жанр: Документальный, научно-популярный
    Режиссер: Люсе Уайлс

    Описание

    Основанные на рассказах о человеческой стойкости и переосмыслении, эти два фильма показывают, как люди растут от детей до взрослых. Для людей процесс взросления является самым драматичным в животном мире. Мы - единственный вид, который нуждается в подростковом возрасте, чтобы приспособиться к чрезвычайным изменениям, которые происходят в наших телах и мозгах.

    Релиз от: рипskorpionN
    Продолжительность: 00: 50: 00
    Качество видео: SATRip
    Перевод: Двуголосый закадровый, профессиональный (Видеофильм ТВ)
    Субтитры: Нет
    Видео: Xvid, 720x576@1024x576, ~1735 kbps
    Аудио: AC3, 2 ch, 192 kbps

    Общее
    Идентификатор : 1 (0x1)
    Полное имя : F: КИНОBBC_The Secret Life of Growing Up1_Teenagers.ts
    Формат : MPEG-TS
    Размер файла : 727 Мбайт
    Продолжительность : 50 м. 4 с.
    Режим общего битрейта : Переменный
    Общий поток : 2028 Кбит/сек
    Максимальный общий битрейт : 35, 5 Мбит/сек
    Видео
    Идентификатор : 4113 (0x1011)
    Идентификатор меню : 1 (0x1)
    Формат : AVC
    Формат/Информация : Advanced Video Codec
    Профиль формата : High@L4.1
    Параметр CABAC формата : Да
    Параметр ReFrames формата : 4 кадра
    Идентификатор кодека : 27
    Продолжительность : 50 м. 4 с.
    Вид битрейта : Переменный
    Битрейт : 1734 Кбит/сек
    Максимальный битрейт : 40, 0 Мбит/сек
    Ширина : 720 пикселей
    Высота : 576 пикселей
    Соотношение сторон : 16: 9
    Частота кадров : 25, 000 кадров/сек
    Стандарт вещания : PAL
    Цветовое пространство : YUV
    Субдискретизация насыщенности : 4: 2: 0
    Битовая глубина : 8 бит
    Тип развёртки : Прогрессивная
    Бит/(Пиксели*Кадры) : 0.167
    Размер потока : 621 Мбайт (85%)
    Язык : English
    Аудио
    Идентификатор : 4352 (0x1100)
    Идентификатор меню : 1 (0x1)
    Формат : AC-3
    Формат/Информация : Audio Coding 3
    Параметр Endianness формата : Big
    Идентификатор кодека : 129
    Продолжительность : 50 м. 4 с.
    Вид битрейта : Постоянный
    Битрейт : 192 Кбит/сек
    Каналы : 2 канала
    Расположение каналов : Front: L R
    Частота : 48, 0 КГц
    Частота кадров : 31, 250 кадров/сек (1536 spf)
    Битовая глубина : 16 бит
    Метод сжатия : С потерями
    Размер потока : 68, 8 Мбайт (9%)
    Язык : Russian
    ServiceKind/String : Complete Main


    Скриншоты для ознакомления



    Прямая ссылка скачивания через uTorrent


    BBC. Тайны взросления/Secret Life of Growing Up (2016) SATRip (Серии 1 из 2) (Обновляемая)
    загрузка...
    Рейтинг →
     (голосов: 1, оценка 4/5, голосовать можно 1 раз )

    Другие торренты по теме:

  • Журнал | Загадки i тайны. Спецвыпуск №1 (2015) [PDF]
  • Журнал | Загадки i тайны. Спецвыпуск №3 (2015) [PDF]
  • Журнал | Загадки i тайны. Спецвыпуск №7 (2016) [PDF]
  • Журнал | Загадки i тайны. Спецвыпуск №6 (2016) [PDF]
  • Нераскрытые тайны. Тайны Кремлевских концертов (2014) SATRip
  • Тайны истории: Тайны римских черепов / Secret History: The Mystery of the Crossrail Skulls (2016) HDTVRip [H.264 / 720p-LQ] (сезон 16, эпизод 2)
  • Тайны мира с Анной Чапман (2014.09.26) SATRip
  • Книжная серия | Тайны древних цивилизаций [121 книга] (1998-2011) [FB2, PDF, DJVU]


    • Комментарии (0):

      Информация

      Информация

        Посетители, находящиеся в группе Гости, не могут оставлять комментарии в данной новости.

        ↓ Меню




        ↓ Опрос

        Вы добавили сайт в закладки?
        Да
        Нет


        Top 10 за месяц (Передачи)