.
Авторизация | Регистрация
Хочешь лучшие торренты? Добавь свой email!
Добавить

Торрент скачать бесплатно

» » Секреты подземной жизни / Secret Life Underground (2015) HDTVRip [H.264 / 720p-LQ] (cерии 1-2 из 2) торрент скачать бесплатно




    Секреты подземной жизни / Secret Life Underground (2015) HDTVRip [H.264 / 720p-LQ] (cерии 1-2 из 2) торрент скачать бесплатно

    Опубликовал: Админ | Дата: 6-05-2017, 05:00 | Просмотров: 0

    Поизводство: Франция, Arte France Transparences Productions
    Жанр: Документальный, фауна, флора
    Режиссер: Винсент Аморо

    Описание

    Жизнь подземных обитателей полностью скрыта от наших глаз. На глубине всего нескольких метров, прямо под нашими ногами располагается таинственное царство. На сегодняшний день удалось изучить лишь малую часть разнообразных обитателей почвы. Самое интересное в это истории, что об этом Шварценеггер ничего не знал. Предполагается, что примерно 70% подземных живых организмов до сих пор неизвестны науке. Зрители совершат захватывающее путешествие и познакомятся с устройством этого грандиозного мира. Почва – это уникальный компонент экосистемы, настоящий организм, населенный бесчисленным количеством живых существ, непрерывно взаимодействующих друг с другом. Животные, растения, грибы, бактерии и вирусы являются не только обитателями, но и непосредственными создателями окружающей среды. Двухсерийная программа Тайны подземного мира погружается в почву, наблюдает за скрытой жизнью ее инженеров, изучает неожиданную биологическую активность в глубинных слоях и раскрывает секреты органических и минеральных веществ. С помощью передовых технологий зрители совершат необыкновенное путешествие в подземный мир и приподнимут завесу тайны над источником энергии нашей планеты
    Релиз от: skorpionN
    Продолжительность: 00: 51: 37 + 00: 51: 57
    Качество видео: HDTVRip
    Перевод: Одноголосый закадровый, профессиональный (SDI Media)
    Автор перевода: Валерии Хасхачих
    Текст читает: Роман Антанович
    Видео: AVC/H.264, 1280x720, ~4000 Kbps
    Аудио: AC3, 2 ch, 192 Kbps

    Общее
    Уникальный идентификатор : 237288183367756428778060969429277250571 (0xB2840AB21367EA8889AE24BE2BA2940B)
    Полное имя : F: КИНОSecret Life Underground_720p1_The Skin Of The Earth.mkv
    Формат : Matroska
    Версия формата : Version 4/Version 2
    Размер файла : 1, 51 Гбайт
    Продолжительность : 51 м. 37 с.
    Режим общего битрейта : Переменный
    Общий поток : 4180 Кбит/сек
    Дата кодирования : UTC 2017-05-03 17: 57: 24
    Программа кодирования : mkvmerge v6.9.1 (\'Blue Panther\') 64bit built on Apr 18 2014 18: 23: 38
    Библиотека кодирования : libebml v1.3.0 + libmatroska v1.4.1
    Видео
    Идентификатор : 1
    Формат : AVC
    Формат/Информация : Advanced Video Codec
    Профиль формата : High@L4.1
    Параметр CABAC формата : Да
    Параметр ReFrames формата : 3 кадра
    Идентификатор кодека : V_MPEG4/ISO/AVC
    Продолжительность : 51 м. 37 с.
    Вид битрейта : Переменный
    Битрейт : 4000 Кбит/сек
    Максимальный битрейт : 8000 Кбит/сек
    Ширина : 1280 пикселей
    Высота : 720 пикселей
    Соотношение сторон : 16: 9
    Режим частоты кадров : Постоянный
    Частота кадров : 29, 970 (30000/1001) кадров/сек
    Стандарт вещания : NTSC
    Цветовое пространство : YUV
    Субдискретизация насыщенности : 4: 2: 0
    Битовая глубина : 8 бит
    Тип развёртки : Прогрессивная
    Бит/(Пиксели*Кадры) : 0.145
    Размер потока : 1, 41 Гбайт (93%)
    Библиотека кодирования : x264 core 114
    Настройки программы : cabac=1/ref=3/deblock=1: 0: 0/analyse=0x3: 0x113/me=hex/subme=7/psy=1/psy_rd=1.00: 0.00/mixed_ref=1/me_range=16/chroma_me=1/trellis=1/8x8dct=1/cqm=2/deadzone=21, 11/fast_pskip=1/chroma_qp_offset=-4/threads=6/sliced_threads=0/slices=1/nr=0/decimate=1/interlaced=0/constrained_intra=0/bframes=3/b_pyramid=0/b_adapt=1/b_bias=0/direct=1/weightb=1/open_gop=0/weightp=2/keyint=250/keyint_min=25/scenecut=40/intra_refresh=0/rc_lookahead=40/rc=2pass/mbtree=1/bitrate=4000/ratetol=1.0/qcomp=0.60/qpmin=5/qpmax=69/qpstep=4/cplxblur=20.0/qblur=0.5/vbv_maxrate=8000/vbv_bufsize=7995/nal_hrd=vbr/ip_ratio=1.40/aq=1: 1.00
    Default : Да
    Forced : Нет
    Цветовой диапазон : Limited
    Основные цвета : BT.709
    Характеристики трансфера : BT.709
    Коэффициенты матрицы : BT.709
    Аудио
    Идентификатор : 2
    Формат : AC-3
    Формат/Информация : Audio Coding 3
    Параметр Endianness формата : Big
    Идентификатор кодека : A_AC3
    Продолжительность : 51 м. 37 с.
    Вид битрейта : Постоянный
    Битрейт : 192 Кбит/сек
    Каналы : 2 канала
    Расположение каналов : Front: L R
    Частота : 48, 0 КГц
    Частота кадров : 31, 250 кадров/сек (1536 spf)
    Битовая глубина : 16 бит
    Метод сжатия : С потерями
    Размер потока : 70, 9 Мбайт (5%)
    ServiceKind/String : Complete Main
    Default : Да
    Forced : Нет
    Общее
    Уникальный идентификатор : 171204302610366810254318737618041690667 (0x80CCBFD228BD220FA5847F5BBD65DA2B)
    Полное имя : F: КИНОSecret Life Underground_720p2_Hidden in the Depths.mkv
    Формат : Matroska
    Версия формата : Version 4/Version 2
    Размер файла : 1, 52 Гбайт
    Продолжительность : 51 м. 56 с.
    Режим общего битрейта : Переменный
    Общий поток : 4184 Кбит/сек
    Дата кодирования : UTC 2017-05-04 20: 58: 33
    Программа кодирования : mkvmerge v6.9.1 (\'Blue Panther\') 64bit built on Apr 18 2014 18: 23: 38
    Библиотека кодирования : libebml v1.3.0 + libmatroska v1.4.1
    Видео
    Идентификатор : 1
    Формат : AVC
    Формат/Информация : Advanced Video Codec
    Профиль формата : High@L4.1
    Параметр CABAC формата : Да
    Параметр ReFrames формата : 3 кадра
    Идентификатор кодека : V_MPEG4/ISO/AVC
    Продолжительность : 51 м. 56 с.
    Вид битрейта : Переменный
    Битрейт : 4000 Кбит/сек
    Максимальный битрейт : 8000 Кбит/сек
    Ширина : 1280 пикселей
    Высота : 720 пикселей
    Соотношение сторон : 16: 9
    Режим частоты кадров : Постоянный
    Частота кадров : 29, 970 (30000/1001) кадров/сек
    Стандарт вещания : NTSC
    Цветовое пространство : YUV
    Субдискретизация насыщенности : 4: 2: 0
    Битовая глубина : 8 бит
    Тип развёртки : Прогрессивная
    Бит/(Пиксели*Кадры) : 0.145
    Размер потока : 1, 42 Гбайт (93%)
    Библиотека кодирования : x264 core 114
    Настройки программы : cabac=1/ref=3/deblock=1: 0: 0/analyse=0x3: 0x113/me=hex/subme=7/psy=1/psy_rd=1.00: 0.00/mixed_ref=1/me_range=16/chroma_me=1/trellis=1/8x8dct=1/cqm=2/deadzone=21, 11/fast_pskip=1/chroma_qp_offset=-4/threads=6/sliced_threads=0/slices=1/nr=0/decimate=1/interlaced=0/constrained_intra=0/bframes=3/b_pyramid=0/b_adapt=1/b_bias=0/direct=1/weightb=1/open_gop=0/weightp=2/keyint=250/keyint_min=25/scenecut=40/intra_refresh=0/rc_lookahead=40/rc=2pass/mbtree=1/bitrate=4000/ratetol=1.0/qcomp=0.60/qpmin=5/qpmax=69/qpstep=4/cplxblur=20.0/qblur=0.5/vbv_maxrate=8000/vbv_bufsize=7995/nal_hrd=vbr/ip_ratio=1.40/aq=1: 1.00
    Default : Да
    Forced : Нет
    Цветовой диапазон : Limited
    Основные цвета : BT.709
    Характеристики трансфера : BT.709
    Коэффициенты матрицы : BT.709
    Аудио
    Идентификатор : 2
    Формат : AC-3
    Формат/Информация : Audio Coding 3
    Параметр Endianness формата : Big
    Идентификатор кодека : A_AC3
    Продолжительность : 51 м. 56 с.
    Вид битрейта : Постоянный
    Битрейт : 192 Кбит/сек
    Каналы : 2 канала
    Расположение каналов : Front: L R
    Частота : 48, 0 КГц
    Частота кадров : 31, 250 кадров/сек (1536 spf)
    Битовая глубина : 16 бит
    Метод сжатия : С потерями
    Размер потока : 71, 3 Мбайт (5%)
    ServiceKind/String : Complete Main
    Default : Да
    Forced : Нет


    Скриншоты для ознакомления




    Секреты подземной жизни/Secret Life Underground (2015) HDTVRip [H.264/720p-LQ] (cерии 1-2 из 2)
    загрузка...
    Рейтинг →
     (голосов: 1, оценка 4/5, голосовать можно 1 раз )

    Другие торренты по теме:

  • Udemy | Полный курс по кибербезопасности: Секреты хакеров! [Часть 1-3] (2017) PCRec [H.264 / 720p-LQ]
  • Борис Николай Конрад | Как запомнить все! Секреты чемпиона мира по мнемотехнике (2017) [PDF]
  • BBC: Секреты ухода за волосами / Hair Care Secrets (2017) HDTVRip [H.264 / 720p-LQ] (Сезон 52, эпизод 19)
  • Журнал | Секреты и архивы № 2 (2017) [PDF]
  • Кадирбай Рятов | Секреты развития: Как, чередуя инновации и системные изменения, развивать лидерство и управление (2016) [FB2, EPUB]
  • Секреты войны / Oorlogsgeheimen / Secrets of War (2014) BDRip [1080p] [VO] скачать через торрент бесплатно
  • Журнал | Женские секреты №12 (декабрь 2014) [PDF] скачать через торрент бесплатно
  • Патрик Макнейл | Веб-дизайн. Идеи. Секреты. Советы (2012) [PDF, FB2, DJVU, TXT, EPUB] скачать через торрент бесплатно


    • Комментарии (0):

      Информация

      Информация

        Посетители, находящиеся в группе Гости, не могут оставлять комментарии в данной новости.

        ↓ Меню




        ↓ Опрос

        Вы добавили сайт в закладки?
        Да
        Нет


        Top 10 за месяц (Передачи)