.
Авторизация | Регистрация
Хочешь лучшие торренты? Добавь свой email!
Добавить

Торрент скачать бесплатно

» » Travel: Музейные тайны / Mysteries at the Museum (2016) HDTVRip [H.264 / 720p-LQ] (сезон 10 серии 1-10, 12,13 из 13) (Обновляемая) торрент скачать бесплатно




    Travel: Музейные тайны / Mysteries at the Museum (2016) HDTVRip [H.264 / 720p-LQ] (сезон 10 серии 1-10, 12,13 из 13) (Обновляемая) торрент скачать бесплатно

    Опубликовал: Админ | Дата: 5-05-2017, 05:00 | Просмотров: 0

    Производство: США, The Travel Channel, Optomen Productions
    Жанр: Документально-постановочный, история, археология, путешествия, исследования, мифы, загадки, тайны
    Режиссер: Реми Вебер, Стерлинг Милан, Ник Зейг-Оуэнс
    Участники: Дон Уайлдман (ведущий) , Пол Мельцер , Рори Даффи

    Описание

    В музеях находятся удивительные сокровища, которые помогают нам больше узнать о нашем прошлом. Однако не все знают, что порой экспонаты скрывают в себе загадки и тайны, полные скандалов и вертится как белка в колесе интриг, и даже убийств. Мы отправимся в захватывающее и познавательное, а порой шокирующее путешествие по истории. Мы попадем в самые темные и потаенные уголки музеев, и узнаем о невидимых шпионах, хладнокровных убийцах и паранормальных явлениях.

    Релиз от: рипskorpionN
    Продолжительность: ~00: 39: 31 серия
    Качество видео: HDTVRip
    Перевод: Двуголосый закадровый, профессиональный
    Видео: AVC/H.264, 1280x720, ~3000 Kbps
    Аудио: AC3, 2 ch, 192 Kbps

    Общее
    Уникальный идентификатор : 205045133712732637585272230529940993315 (0x9A42419CAB2BA61DB89FAA40D5CA3523)
    Полное имя : F: КИНОMysteries at the Museum_s10_720p1_Dancing Plague_Tracking Santa and Annie Londonderry.mkv
    Формат : Matroska
    Версия формата : Version 4/Version 2
    Размер файла : 900 Мбайт
    Продолжительность : 39 м. 30 с.
    Режим общего битрейта : Переменный
    Общий поток : 3186 Кбит/сек
    Дата кодирования : UTC 2017-01-30 21: 07: 06
    Программа кодирования : mkvmerge v7.3.0 (\'Nouages\') 64bit built on Oct 22 2014 18: 53: 34
    Библиотека кодирования : libebml v1.3.0 + libmatroska v1.4.1
    Видео
    Идентификатор : 1
    Формат : AVC
    Формат/Информация : Advanced Video Codec
    Профиль формата : High@L4.1
    Параметр CABAC формата : Да
    Параметр ReFrames формата : 3 кадра
    Идентификатор кодека : V_MPEG4/ISO/AVC
    Продолжительность : 39 м. 30 с.
    Вид битрейта : Переменный
    Битрейт : 3000 Кбит/сек
    Максимальный битрейт : 8000 Кбит/сек
    Ширина : 1280 пикселей
    Высота : 720 пикселей
    Соотношение сторон : 16: 9
    Режим частоты кадров : Постоянный
    Частота кадров : 29, 970 (30000/1001) кадров/сек
    Стандарт вещания : NTSC
    Цветовое пространство : YUV
    Субдискретизация насыщенности : 4: 2: 0
    Битовая глубина : 8 бит
    Тип развёртки : Прогрессивная
    Бит/(Пиксели*Кадры) : 0.109
    Размер потока : 846 Мбайт (94%)
    Библиотека кодирования : x264 core 114
    Настройки программы : cabac=1/ref=3/deblock=1: 0: 0/analyse=0x3: 0x113/me=hex/subme=7/psy=1/psy_rd=1.00: 0.00/mixed_ref=1/me_range=16/chroma_me=1/trellis=1/8x8dct=1/cqm=2/deadzone=21, 11/fast_pskip=1/chroma_qp_offset=-4/threads=6/sliced_threads=0/slices=1/nr=0/decimate=1/interlaced=0/constrained_intra=0/bframes=3/b_pyramid=0/b_adapt=1/b_bias=0/direct=1/weightb=1/open_gop=0/weightp=2/keyint=250/keyint_min=25/scenecut=40/intra_refresh=0/rc_lookahead=40/rc=2pass/mbtree=1/bitrate=3000/ratetol=1.0/qcomp=0.60/qpmin=5/qpmax=69/qpstep=4/cplxblur=20.0/qblur=0.5/vbv_maxrate=8000/vbv_bufsize=7995/nal_hrd=vbr/ip_ratio=1.40/aq=1: 1.00
    Default : Да
    Forced : Нет
    Цветовой диапазон : Limited
    Основные цвета : BT.709
    Характеристики трансфера : BT.709
    Коэффициенты матрицы : BT.709
    Аудио
    Идентификатор : 2
    Формат : AC-3
    Формат/Информация : Audio Coding 3
    Параметр Endianness формата : Big
    Идентификатор кодека : A_AC3
    Продолжительность : 39 м. 30 с.
    Вид битрейта : Постоянный
    Битрейт : 192 Кбит/сек
    Каналы : 2 канала
    Расположение каналов : Front: L R
    Частота : 48, 0 КГц
    Частота кадров : 31, 250 кадров/сек (1536 spf)
    Битовая глубина : 16 бит
    Метод сжатия : С потерями
    Размер потока : 54, 3 Мбайт (6%)
    ServiceKind/String : Complete Main
    Default : Да
    Forced : Нет


    Скриншоты для ознакомления




    Travel: Музейные тайны/Mysteries at the Museum (2016) HDTVRip [H.264/720p-LQ] (сезон 10 серии 1-10, 12,13 из 13) (Обновляемая)
    загрузка...
    Рейтинг →
     (голосов: 1, оценка 4/5, голосовать можно 1 раз )

    Другие торренты по теме:

  • Travel: Музейные тайны / Mysteries at the Museum (2014) HDTVRip [H.264 / 720p] (сезон 6, серии 1-13 из 13)
  • Travel: Музейные тайны / Mysteries at the Museum (2015) HDTVRip [H.264 / 720p] (сезон 8, серии 1-10, 12, 13 из 13)
  • Travel: Музейные тайны / Mysteries at the Museum (2016) HDTVRip [H.264 / 720p-LQ] (сезон 9, серии 1-13 из 13)
  • Travel: Музейные тайны / Mysteries at the Museum (2014) HDTVRip [H.264 / 720p] (сезон 7, серии 1-13 из 13)


    • Комментарии (0):

      Информация

      Информация

        Посетители, находящиеся в группе Гости, не могут оставлять комментарии в данной новости.

        ↓ Меню




        ↓ Опрос

        Вы добавили сайт в закладки?
        Да
        Нет


        Top 10 за месяц (Передачи)