.
Авторизация | Регистрация
Хочешь лучшие торренты? Добавь свой email!
Добавить

Торрент скачать бесплатно

» » Легион / Legion (2017) WEB-DLRip (сезон 1, серии 1 из 8) LostFilm (обновляемая) торрент скачать бесплатно



    Легион / Legion (2017) WEB-DLRip (сезон 1, серии 1 из 8) LostFilm (обновляемая) торрент скачать бесплатно

    Опубликовал: Админ | Дата: 13-02-2017, 05:01 | Просмотров: 11

    Производство: США/26 Keys Productions, FX Productions, Marvel Entertainment
    Жанр: фантастика, боевик, драма
    Режиссер: Майкл Аппендаль, Дэнни Гордон, Ной Хоули
    Актеры: Дэн Стивенс, Джин Смарт, МакКензи Грэй, Скотт Лоуренс, Кэтрин Аселтон, Татьяна Форрест, Джереми Харрис, Билл Ирвин, Рэйчел Келлер, Эмбер Мидфандер и др.

    Описание

    Дэвиду Халлеру в детстве поставили диагноз – шизофрения. На самом деле он мутант, обладающий разными необычными способностями, например, телепатией и телекинезом. О таком странном сюжете не догадывалась даже Бритни Спирс. Все детство он провел в психиатрических клиниках. В одной из них он встречает девушку с аналогичным диагнозом, которая заставляет его начать сомневаться, действительно ли он болен или реальность не такая, как ему внушали.

    Возраст: 16+ (зрителям, достигшим 16 лет)
    Дата мировой премьеры: 08 февраля 2017
    Продолжительность: ~01: 10: 00 серия
    Качество видео: WEB-DLRip
    Перевод: Многоголосый закадровый, профессиональный -LostFilm
    Видео: XviD, 720x400 (16: 9), ~1500 kbps
    Аудио Rus: MP3, 48, 0 kHz, 2 ch, 128 kbps — многоголосый закадровый
    Аудио Eng: MP3, 48, 0 kHz, 2 ch, 128 kbps — оригинал

    Общее
    Полное имя : D: Легион (сезон 1) Legion (2017) WEB-DLRip - LostFilmLegion.S01E01.WEB-DLRip.Rus.Eng.DV.LostFilm.avi
    Формат : AVI
    Формат/Информация : Audio Video Interleave
    Размер файла : 877 Мбайт
    Продолжительность : 1 ч. 10 м.
    Общий поток : 1748 Кбит/сек
    Название фильма : Legion.S01E01.WEB-DLRip.Rus.Eng.DV.LostFilm/NNM-Club
    Программа кодирования : VirtualDubModRus 1.5.10.2 (build 2542/release)
    Библиотека кодирования : VirtualDubMod build 2542/release
    Видео
    Идентификатор : 0
    Формат : MPEG-4 Visual
    Профиль формата : Advanced Simple@L5
    Параметр BVOP формата : 2
    Параметр QPel формата : Нет
    Параметр GMC формата : Без точки перехода
    Параметр матрицы формата : Default (H.263)
    Идентификатор кодека : XVID
    Идентификатор кодека/Подсказка : XviD
    Продолжительность : 1 ч. 10 м.
    Битрейт : 1478 Кбит/сек
    Ширина : 720 пикселей
    Высота : 400 пикселей
    Соотношение сторон : 16: 9
    Частота кадров : 23, 976 (24000/1001) кадра/сек
    Цветовое пространство : YUV
    Субдискретизация насыщенности : 4: 2: 0
    Битовая глубина : 8 бит
    Тип развёртки : Прогрессивная
    Метод сжатия : С потерями
    Бит/(Пиксели*Кадры) : 0.214
    Размер потока : 742 Мбайт (85%)
    Заголовок : Rip by DriverV/NNM-Club
    Библиотека кодирования : XviD 64
    Аудио #1
    Идентификатор : 1
    Формат : MPEG Audio
    Версия формата : Version 1
    Профиль формата : Layer 3
    Режим : Joint stereo
    Расширение режима : MS Stereo
    Идентификатор кодека : 55
    Идентификатор кодека/Подсказка : MP3
    Продолжительность : 1 ч. 10 м.
    Вид битрейта : Постоянный
    Битрейт : 128 Кбит/сек
    Каналы : 2 канала
    Частота : 48, 0 КГц
    Метод сжатия : С потерями
    Размер потока : 64, 2 Мбайт (7%)
    Выравнивание : Соединение по промежуткам
    Продолжительность промежутка : 42 мс. (1, 00 видеокадр)
    Время предзагрузки промежутка : 504 мс.
    Аудио #2
    Идентификатор : 2
    Формат : MPEG Audio
    Версия формата : Version 1
    Профиль формата : Layer 3
    Режим : Joint stereo
    Расширение режима : MS Stereo
    Идентификатор кодека : 55
    Идентификатор кодека/Подсказка : MP3
    Продолжительность : 1 ч. 10 м.
    Вид битрейта : Постоянный
    Битрейт : 128 Кбит/сек
    Каналы : 2 канала
    Частота : 48, 0 КГц
    Метод сжатия : С потерями
    Размер потока : 64, 2 Мбайт (7%)
    Выравнивание : Соединение по промежуткам
    Продолжительность промежутка : 42 мс. (1, 00 видеокадр)
    Время предзагрузки промежутка : 504 мс.


    Скриншоты для ознакомления



    Прямая ссылка скачивания через uTorrent


    Легион/Legion (2017) WEB-DLRip (сезон 1, серии 1 из 8) LostFilm (обновляемая)
    загрузка...
    Рейтинг →
     (голосов: 1, оценка 5/5, голосовать можно 1 раз )

    Другие торренты по теме:

  • Легион / Legion (2010) BDRip [720p] [hand made 60fps]
  • Легион-Aвтодата | Honda Civic (5D). Модели 2006-2011 гг. выпуска с двигателем R18A (1,8 л). Устройство, техническое обслуживание и ремонт (2012) [PDF]
  • Легион-Aвтодата | Honda Civic (4D). Модели седан с 2006 года выпуска с двигателем R18A (1,8 л). Устройство, техническое обслуживание и ремонт (2009) [PDF]
  • Легион / Legion (2010) BDRip [H.264 / 1080p-LQ]
  • Легион-Автодата | Honda Fit / Jazz GG1, GE6, GE8 2007–2013 (2013) [PDF]
  • Легион / Legion (2017) WEB-DLRip (сезон 1, серия 1 из 8) BaibaKo (обновляемая)
  • Легион / Legion (2017) WEB-DL [H.264 / 720p-LQ] (сезон 1, серия 1 из 8) Fox (обновляемая)
  • Легион / Legion (2017) WEB-DL [H.264 / 1080p-LQ] (сезон 1, серия 1 из 8) Fox (обновляемая)


    • Комментарии (0):

      Информация

      Информация

        Посетители, находящиеся в группе Гости, не могут оставлять комментарии в данной новости.

        ↓ Меню




        ↓ Опрос

        Вы добавили сайт в закладки?
        Да
        Нет


        Top 10 за месяц (Программы)