.
Авторизация | Регистрация
Хочешь лучшие торренты? Добавь свой email!
Добавить

Торрент скачать бесплатно

» » Тренировочный день / Training Day (2017) WEBRip [H.264 / 720p-LQ] (сезон 1, серии 1 из 13) Jaskier (обновляемая) торрент скачать бесплатно



    Тренировочный день / Training Day (2017) WEBRip [H.264 / 720p-LQ] (сезон 1, серии 1 из 13) Jaskier (обновляемая) торрент скачать бесплатно

    Опубликовал: Админ | Дата: 12-02-2017, 05:01 | Просмотров: 2

    Производство: США/Jerry Bruckheimer Television, Warner Bros. Television
    Жанр: драма, криминал, боевик
    Режиссер: Стив Эделсон, Дэнни Кэннон, Мэтт Эрл Бисли
    Актеры: Джастин Корнвэлл, Билл Пэкстон, Дрю Ван Экер, Катрина Ло, Обри Фицджералд, Джули Бенц, Шеннон Браун, Тайлер Кук, Лекс Скотт Дэвис, Жоаким ди Алмейда и др.

    Описание

    Предлагаем вашему вниманию криминальную историю, основанную на одноименном полнометражном фильме. Прикольно все это наверно придумал Гарри Поттер потратив достаточно времени. Триллер с особо крутым сюжетом рассказывает о событиях, происходящих через пятнадцать лет после того, что произошло в оригинальном проекте. В центре внимания сюжета оказывается юный полицейский, который думает, что мир везде идеален, но порой в нем встречаются нехорошие люди. Ему в пару достается матерый и опытный дяденька, который точно знает, что ожидать от современных бандитов. О таком странном сюжете не догадывалась даже Настя Каменских. Отношения между персонажами складываются сложно, однако им приходится заниматься одним и тем же делом, которое оказывается весьма непростым.

    Дата мировой премьеры: 2 февраля 2017
    Продолжительность: ~00: 43: 00 серия
    Качество видео: WEBRip
    Перевод: Многоголосый закадровый, профессиональный -Jaskier
    Видео: AVC/H.264, 1280x718 (16: 9), ~4 032 kbps
    Аудио Rus: AC3, 48, 0 kHz, 6 ch, 384 kbps - многоголосый закадровый
    Аудио Eng: AC3, 48, 0 kHz, 6 ch, 384 kbps - оригинал
    General
    Unique ID : 214220917003120304477317045687885458288 (0xA12972A811D85AE1B0342340474F6B70)
    Complete name : Training Day S01 JaskierTraining.Day.S01E01.720p.WEB-DL.DD5.1.H264-JASKiER.mkv
    Format : Matroska
    Format version : Version 4/Version 2
    File size : 1.45 GiB
    Duration : 43 min 12 s
    Overall bit rate : 4 802 kb/s
    Movie name : Training.Day.S01E01.720p.WEB-DL.DD5.1.H264-RARBG
    Encoded date : UTC 2017-02-08 15: 56: 26
    Writing application : mkvmerge v9.8.0 (\'Kuglblids\') 64bit
    Writing library : libebml v1.3.4 + libmatroska v1.4.5
    Video
    ID : 1
    Format : AVC
    Format/Info : Advanced Video Codec
    Format profile : High@L3.1
    Format settings, CABAC : No
    Format settings, ReFrames : 2 frames
    Codec ID : V_MPEG4/ISO/AVC
    Duration : 43 min 12 s
    Bit rate : 4 032 kb/s
    Width : 1 280 pixels
    Height : 718 pixels
    Display aspect ratio : 16: 9
    Frame rate mode : Constant
    Frame rate : 23.976 (23976/1000) FPS
    Color space : YUV
    Chroma subsampling : 4: 2: 0
    Bit depth : 8 bits
    Scan type : Progressive
    Bits/(Pixel*Frame) : 0.183
    Stream size : 1.22 GiB (84%)
    Language : English
    Default : Yes
    Forced : No
    Color range : Limited
    Color primaries : BT.709
    Transfer characteristics : BT.709
    Matrix coefficients : BT.709
    Audio #1
    ID : 2
    Format : AC-3
    Format/Info : Audio Coding 3
    Mode extension : CM (complete main)
    Format settings, Endianness : Big
    Codec ID : A_AC3
    Duration : 43 min 12 s
    Bit rate mode : Constant
    Bit rate : 384 kb/s
    Channel(s) : 6 channels
    Channel positions : Front: L C R, Side: L R, LFE
    Sampling rate : 48.0 kHz
    Frame rate : 31.250 FPS (1536 spf)
    Bit depth : 16 bits
    Compression mode : Lossy
    Stream size : 119 MiB (8%)
    Language : Russian
    Default : Yes
    Forced : No
    Audio #2
    ID : 3
    Format : AC-3
    Format/Info : Audio Coding 3
    Mode extension : CM (complete main)
    Format settings, Endianness : Big
    Codec ID : A_AC3
    Duration : 43 min 12 s
    Bit rate mode : Constant
    Bit rate : 384 kb/s
    Channel(s) : 6 channels
    Channel positions : Front: L C R, Side: L R, LFE
    Sampling rate : 48.0 kHz
    Frame rate : 31.250 FPS (1536 spf)
    Bit depth : 16 bits
    Compression mode : Lossy
    Stream size : 119 MiB (8%)
    Language : English
    Default : No
    Forced : No


    Скриншоты для ознакомления



    Прямая ссылка скачивания через uTorrent


    Тренировочный день/Training Day (2017) WEBRip [H.264/720p-LQ] (сезон 1, серии 1 из 13) Jaskier (обновляемая)
    загрузка...
    Рейтинг →
     (голосов: 1, оценка 3/5, голосовать можно 1 раз )

    Другие торренты по теме:

  • Тренировочный день / Training Day (2001) BDRip [H.264 / 1080p] скачать через торрент бесплатно
  • Тренировочный день / Training Day (2001) BDRip [H.264 / 720р-LQ] скачать через торрент бесплатно
  • Тренировочный день / Training Day (2001) HDRip [AVO]


    • Комментарии (0):

      Информация

      Информация

        Посетители, находящиеся в группе Гости, не могут оставлять комментарии в данной новости.

        ↓ Меню




        ↓ Опрос

        Вы добавили сайт в закладки?
        Да
        Нет


        Top 10 за месяц (Программы)