.
Авторизация | Регистрация
Хочешь лучшие торренты? Добавь свой email!
Добавить

Торрент скачать бесплатно

» » Бессильные / Powerless (2017) WEBRip [H.264 / 720p-LQ] (сезон 1, серии 1 из 10) Jaskier (обновляемая) торрент скачать бесплатно



    Бессильные / Powerless (2017) WEBRip [H.264 / 720p-LQ] (сезон 1, серии 1 из 10) Jaskier (обновляемая) торрент скачать бесплатно

    Опубликовал: Админ | Дата: 12-02-2017, 05:01 | Просмотров: 1

    Производство: США/Ehsugadee Productions, DC Entertainment, Warner Bros. Television
    Жанр: комедия
    Режиссер: Марк Баклэнд, Дж. Кларк Мэтис, Майкл Патрик Джэнн
    Актеры: Ванесса Энн Хадженс, Эйтлин Митчелл, Дэнни Пуди, Алан Тьюдик и др.

    Описание

    Добро пожаловать в удивительный мир, который совершенно отличается от нашего! Кто бы мог подумать, что, если у нас встречаешь человека со сверхъестественными способностями, который борется со злом, то невольно называешь его супергероем. В этом же альтернативном мире супергерои есть везде! А вот простых людей без особых умений - раз, два и обчелся. Этот мир не похож на нас, а людей, которые ничего не умеют, берегут, как редкий вид животных в заповеднике. Самое интересное в это истории, что об этом Басков ничего не знал. Однако главная героиня сериала по имени Эмили понимает, что можно стать супергероем, даже если ты не наделен суперсилами! Достаточно просто иметь большое и доброе сердце!

    Дата мировой премьеры: 2 февраля 2017
    Продолжительность: ~00: 21: 00 серия
    Качество видео: WEBRip
    Перевод: Многоголосый закадровый, профессиональный -Jaskier
    Видео: AVC/H.264, 1280x720 (16: 9), ~6519 kbps
    Аудио Rus: AC3, 48, 0 kHz, 6 ch, 384 kbps - многоголосый закадровый
    Аудио Eng: E-AC-3, 48, 0 kHz, 6 ch, 384 kbps - оригинал
    General
    Unique ID : 217797805851286128095966614512564449380 (0xA3DA54E476C4412CA68A6A9FE4403064)
    Complete name : Powerless S01 JaskierPowerless.S01E01.Wayne.or.Lose.720p.AMZN.WEBRip.DD+5.1.x264-Jaskier.mkv
    Format : Matroska
    Format version : Version 4/Version 2
    File size : 1.16 GiB
    Duration : 21 min 59 s
    Overall bit rate : 7 544 kb/s
    Encoded date : UTC 2017-02-08 15: 53: 27
    Writing application : mkvmerge v9.8.0 (\'Kuglblids\') 64bit
    Writing library : libebml v1.3.4 + libmatroska v1.4.5
    Encoded/Released by : o
    Group : ViSUM
    Video
    ID : 1
    Format : AVC
    Format/Info : Advanced Video Codec
    Format profile : High@L4.1
    Format settings, CABAC : Yes
    Format settings, ReFrames : 4 frames
    Codec ID : V_MPEG4/ISO/AVC
    Duration : 21 min 59 s
    Bit rate : 6 519 kb/s
    Width : 1 280 pixels
    Height : 720 pixels
    Display aspect ratio : 16: 9
    Frame rate mode : Constant
    Frame rate : 23.976 (24000/1001) FPS
    Color space : YUV
    Chroma subsampling : 4: 2: 0
    Bit depth : 8 bits
    Scan type : Progressive
    Bits/(Pixel*Frame) : 0.295
    Stream size : 1.00 GiB (86%)
    Writing library : x264 core 148 r2638 7599210
    Encoding settings : cabac=1/ref=4/deblock=1: -3: -3/analyse=0x3: 0x133/me=umh/subme=10/psy=1/psy_rd=1.00: 0.00/mixed_ref=1/me_range=48/chroma_me=1/trellis=2/8x8dct=1/cqm=0/deadzone=21, 11/fast_pskip=1/chroma_qp_offset=-2/threads=22/lookahead_threads=3/sliced_threads=0/nr=0/decimate=0/interlaced=0/bluray_compat=0/constrained_intra=0/bframes=8/b_pyramid=2/b_adapt=2/b_bias=0/direct=3/weightb=1/open_gop=0/weightp=2/keyint=240/keyint_min=23/scenecut=40/intra_refresh=0/rc=crf/mbtree=0/crf=16.0/qcomp=0.60/qpmin=0/qpmax=69/qpstep=4/ip_ratio=1.30/pb_ratio=1.20/aq=1: 0.70
    Language : Russian
    Default : Yes
    Forced : No
    Audio #1
    ID : 2
    Format : AC-3
    Format/Info : Audio Coding 3
    Mode extension : CM (complete main)
    Format settings, Endianness : Big
    Codec ID : A_AC3
    Duration : 21 min 59 s
    Bit rate mode : Constant
    Bit rate : 384 kb/s
    Channel(s) : 6 channels
    Channel positions : Front: L C R, Side: L R, LFE
    Sampling rate : 48.0 kHz
    Frame rate : 31.250 FPS (1536 spf)
    Bit depth : 16 bits
    Compression mode : Lossy
    Stream size : 60.4 MiB (5%)
    Language : Russian
    Default : Yes
    Forced : No
    Audio #2
    ID : 3
    Format : E-AC-3
    Format/Info : Enhanced Audio Coding 3
    Format settings, Endianness : Big
    Codec ID : A_EAC3
    Duration : 21 min 59 s
    Bit rate mode : Constant
    Bit rate : 640 kb/s
    Channel(s) : 6 channels
    Channel positions : Front: L C R, Side: L R, LFE
    Sampling rate : 48.0 kHz
    Frame rate : 187.500 FPS (256 spf)
    Compression mode : Lossy
    Stream size : 101 MiB (8%)
    Language : English
    Default : No
    Forced : No


    Скриншоты для ознакомления



    Прямая ссылка скачивания через uTorrent


    Бессильные/Powerless (2017) WEBRip [H.264/720p-LQ] (сезон 1, серии 1 из 10) Jaskier (обновляемая)
    загрузка...
    Рейтинг →
     (голосов: 1, оценка 4/5, голосовать можно 1 раз )

    Другие торренты по теме:

  • С. Витицкий ( Борис Стругацкий) | Бессильные мира сего (2016) [MP3]


    • Комментарии (0):

      Информация

      Информация

        Посетители, находящиеся в группе Гости, не могут оставлять комментарии в данной новости.

        ↓ Меню




        ↓ Опрос

        Вы добавили сайт в закладки?
        Да
        Нет


        Top 10 за месяц (Программы)