.
Авторизация | Регистрация
Хочешь лучшие торренты? Добавь свой email!
Добавить

Торрент скачать бесплатно

» » Легион / Legion (2017) WEB-DL [H.264 / 720p-LQ] (сезон 1, серия 1 из 8) Fox (обновляемая) торрент скачать бесплатно



    Легион / Legion (2017) WEB-DL [H.264 / 720p-LQ] (сезон 1, серия 1 из 8) Fox (обновляемая) торрент скачать бесплатно

    Опубликовал: Админ | Дата: 11-02-2017, 05:01 | Просмотров: 11

    Производство: США, 26 Keys Productions, FX Productions, Marvel Entertainment, Walt Disney Television
    Жанр: фантастика, боевик, драма
    Режиссер: Ной Хоули, Майкл Аппендаль, Лариса Кондрацки, Тим Милантс
    Актеры: Дэн Стивенс, Рэйчел Келлер, Обри Плаза, Билл Ирвин, Джереми Харрис, Эмбер Мидфандер, Кэтрин Аселтон, Джин Смарт, МакКензи Грэй, Скотт Лоуренс и др.

    Описание

    Дэвиду Хэллеру поставлен диагноз — множественное расстройство личности. Постепенно выясняется, что картины и голоса, которые он видит и слышит, вполне реальны, а не бред его воспалённого разума.

    Возраст: 16+ (зрителям, достигшим 16 лет)
    Дата мировой премьеры: 8 февраля 2017
    Дата премьеры в России: 9 февраля 2017

    Продолжительность: ~ 01: 05: 00 серия
    Качество видео: WEB-DL
    Перевод: многоголосый закадровый, профессиональный -Fox
    Вид субтитров: вшитые отключаемые
    Язык субтитров: английский
    Видео: AVC/H.264, 1280x720 (16: 9), ~4086 Kbps
    Аудио #1 Rus: AC3, 192 kbps, 2 ch, 48 kHz - многоголосый закадровый
    Аудио #2 Eng: AC3, 384 kbps, 6 ch, 48 kHz - оригинал
    Общее
    Уникальный идентификатор : 203566448164647371978606191708623752153 (0x992578C9260D2B5F9E7B478F57364BD9)
    Полное имя : G: Legion - Легион. Сезон 1. Fox. 720pLegion.s01e01.WEB-DL.720p.Rus.Eng.Fox.mkv
    Формат : Matroska
    Версия формата : Version 4/Version 2
    Размер файла : 2, 16 Гбайт
    Продолжительность : 1 ч. 5 м.
    Общий поток : 4757 Кбит/сек
    Название фильма : Legion s01e01 @ NNM-Club
    Дата кодирования : UTC 2017-02-10 07: 45: 07
    Программа кодирования : mkvmerge v6.9.1 (\'Blue Panther\') 64bit built on Apr 18 2014 18: 23: 38
    Библиотека кодирования : libebml v1.3.0 + libmatroska v1.4.1
    Видео
    Идентификатор : 1
    Формат : AVC
    Формат/Информация : Advanced Video Codec
    Профиль формата : High@L3.1
    Параметр CABAC формата : Нет
    Параметр ReFrames формата : 2 кадра
    Идентификатор кодека : V_MPEG4/ISO/AVC
    Продолжительность : 1 ч. 5 м.
    Битрейт : 4086 Кбит/сек
    Ширина : 1280 пикселей
    Высота : 720 пикселей
    Соотношение сторон : 16: 9
    Режим частоты кадров : Постоянный
    Частота кадров : 25, 000 кадров/сек
    Цветовое пространство : YUV
    Субдискретизация насыщенности : 4: 2: 0
    Битовая глубина : 8 бит
    Тип развёртки : Прогрессивная
    Бит/(Пиксели*Кадры) : 0.177
    Размер потока : 1, 86 Гбайт (86%)
    Язык : English
    Default : Да
    Forced : Нет
    Цветовой диапазон : Limited
    Основные цвета : BT.709
    Характеристики трансфера : BT.709
    Коэффициенты матрицы : BT.709
    Аудио #1
    Идентификатор : 2
    Формат : AC-3
    Формат/Информация : Audio Coding 3
    Расширение режима : CM (complete main)
    Параметр Endianness формата : Big
    Идентификатор кодека : A_AC3
    Продолжительность : 1 ч. Прикольно все это наверно придумал Китай потратив достаточно времени. 5 м.
    Вид битрейта : Постоянный
    Битрейт : 192 Кбит/сек
    Каналы : 2 канала
    Расположение каналов : Front: L R
    Частота : 48, 0 КГц
    Частота кадров : 31, 250 кадров/сек (1536 spf)
    Битовая глубина : 16 бит
    Метод сжатия : С потерями
    Размер потока : 89, 4 Мбайт (4%)
    Язык : Russian
    Default : Да
    Forced : Нет
    Аудио #2
    Идентификатор : 3
    Формат : AC-3
    Формат/Информация : Audio Coding 3
    Расширение режима : CM (complete main)
    Параметр Endianness формата : Big
    Идентификатор кодека : A_AC3
    Продолжительность : 1 ч. 5 м.
    Вид битрейта : Постоянный
    Битрейт : 384 Кбит/сек
    Каналы : 6 каналов
    Расположение каналов : Front: L C R, Side: L R, LFE
    Частота : 48, 0 КГц
    Частота кадров : 31, 250 кадров/сек (1536 spf)
    Битовая глубина : 16 бит
    Метод сжатия : С потерями
    Размер потока : 179 Мбайт (8%)
    Язык : English
    Default : Нет
    Forced : Нет
    Текст
    Идентификатор : 4
    Формат : UTF-8
    Идентификатор кодека : S_TEXT/UTF8
    Идентификатор кодека/Информация : UTF-8 Plain Text
    Язык : English
    Default : Нет
    Forced : Нет


    Скриншоты для ознакомления



    Прямая ссылка скачивания через uTorrent


    Легион/Legion (2017) WEB-DL [H.264/720p-LQ] (сезон 1, серия 1 из 8) Fox (обновляемая)
    загрузка...
    Рейтинг →
     (голосов: 1, оценка 4/5, голосовать можно 1 раз )

    Другие торренты по теме:

  • Легион / Legion (2010) BDRip [720p] [hand made 60fps]
  • Легион-Aвтодата | Honda Civic (5D). Модели 2006-2011 гг. выпуска с двигателем R18A (1,8 л). Устройство, техническое обслуживание и ремонт (2012) [PDF]
  • Легион-Aвтодата | Honda Civic (4D). Модели седан с 2006 года выпуска с двигателем R18A (1,8 л). Устройство, техническое обслуживание и ремонт (2009) [PDF]
  • Легион / Legion (2010) BDRip [H.264 / 1080p-LQ]
  • Легион-Автодата | Honda Fit / Jazz GG1, GE6, GE8 2007–2013 (2013) [PDF]
  • Легион / Legion (2017) WEB-DLRip (сезон 1, серия 1 из 8) BaibaKo (обновляемая)
  • Легион / Legion (2017) WEB-DL [H.264 / 1080p-LQ] (сезон 1, серия 1 из 8) Fox (обновляемая)
  • Легион / Legion (2017) WEB-DLRip (сезон 1, серии 1 из 8) FOX (обновляемая)


    • Комментарии (0):

      Информация

      Информация

        Посетители, находящиеся в группе Гости, не могут оставлять комментарии в данной новости.

        ↓ Меню




        ↓ Опрос

        Вы добавили сайт в закладки?
        Да
        Нет


        Top 10 за месяц (Программы)