.
Авторизация | Регистрация
Хочешь лучшие торренты? Добавь свой email!
Добавить

Торрент скачать бесплатно

» » Легион / Legion (2017) WEB-DLRip (сезон 1, серия 1 из 8) BaibaKo (обновляемая) торрент скачать бесплатно



    Легион / Legion (2017) WEB-DLRip (сезон 1, серия 1 из 8) BaibaKo (обновляемая) торрент скачать бесплатно

    Опубликовал: Админ | Дата: 11-02-2017, 05:01 | Просмотров: 1

    Производство: США/26 Keys Productions, FX Productions, Marvel Entertainment
    Жанр: фантастика, боевик, драма
    Режиссер: Ной Хоули, Майкл Аппендаль, Лариса Кондрацки, Тим Милантс
    Актеры: Дэн Стивенс, Рэйчел Келлер, Обри Плаза, Билл Ирвин, Джереми Харрис, Эмбер Мидфандер, Кэтрин Аселтон, Джин Смарт, МакКензи Грэй, Скотт Лоуренс и др.

    Описание

    Дэвиду Хэллеру поставлен диагноз — множественное расстройство личности. Постепенно выясняется, что картины и голоса, которые он видит и слышит, вполне реальны, а не бред его воспаленного разума.

    Возраст: 16+ (зрителям, достигшим 16 лет)
    Дата мировой премьеры: 8 февраля 2017
    Дата премьеры в России: 9 февраля 2017

    Релиз от: BaibaKo
    Продолжительность: ~01: 10: 00 серия
    Качество видео: WEB-DLRip
    Перевод: Многоголосый закадровый, профессиональный - BaibaKo
    Реклама: присутствуют аудио, видео, текстовые вставки рекламы
    Видео: Xvid, 720x400 (16: 9), ~1500 Kbps
    Аудио #1 Rus: MP3, 192 Kbps, 2 ch, 48 kHz - многоголосый закадровый
    Аудио #2 Eng: MP3, 192 Kbps, 2 ch, 48 kHz - оригинал

    Общее
    Полное имя : D: Legion.s01.WEB-DLRip.XviD.BaibaKoLegion.s01e01.WEB-DLRip.XviD.Rus.Eng.BaibaKo.tv.avi
    Формат : AVI
    Формат/Информация : Audio Video Interleave
    Размер файла : 960 Мбайт
    Продолжительность : 1 ч. 10 м.
    Общий поток : 1891 Кбит/сек
    Видео
    Идентификатор : 0
    Формат : MPEG-4 Visual
    Профиль формата : Advanced Simple@L5
    Параметр BVOP формата : 2
    Параметр QPel формата : Нет
    Параметр GMC формата : Без точки перехода
    Параметр матрицы формата : Default (H.263)
    Идентификатор кодека : XVID
    Идентификатор кодека/Подсказка : XviD
    Продолжительность : 1 ч. 10 м.
    Битрейт : 1500 Кбит/сек
    Ширина : 720 пикселей
    Высота : 400 пикселей
    Соотношение сторон : 16: 9
    Частота кадров : 23, 976 (24000/1001) кадра/сек
    Цветовое пространство : YUV
    Субдискретизация насыщенности : 4: 2: 0
    Битовая глубина : 8 бит
    Тип развёртки : Прогрессивная
    Метод сжатия : С потерями
    Бит/(Пиксели*Кадры) : 0.217
    Размер потока : 761 Мбайт (79%)
    Библиотека кодирования : XviD 65
    Аудио #1
    Идентификатор : 1
    Формат : MPEG Audio
    Версия формата : Version 1
    Профиль формата : Layer 3
    Режим : Joint stereo
    Идентификатор кодека : 55
    Идентификатор кодека/Подсказка : MP3
    Продолжительность : 1 ч. 10 м.
    Вид битрейта : Постоянный
    Битрейт : 192 Кбит/сек
    Каналы : 2 канала
    Частота : 48, 0 КГц
    Метод сжатия : С потерями
    Размер потока : 97, 5 Мбайт (10%)
    Выравнивание : Соединение по промежуткам
    Продолжительность промежутка : 167 мс. (4, 00 видеокадра)
    Время предзагрузки промежутка : 216 мс.
    Заголовок : Legion.S01E01 RUS
    Библиотека кодирования : LAME3.99r
    Настройки программы : -m j -V 4 -q 2 -lowpass 18.6 -b 192
    Аудио #2
    Идентификатор : 2
    Формат : MPEG Audio
    Версия формата : Version 1
    Профиль формата : Layer 3
    Режим : Joint stereo
    Идентификатор кодека : 55
    Идентификатор кодека/Подсказка : MP3
    Продолжительность : 1 ч. 10 м.
    Вид битрейта : Постоянный
    Битрейт : 192 Кбит/сек
    Каналы : 2 канала
    Частота : 48, 0 КГц
    Метод сжатия : С потерями
    Размер потока : 97, 5 Мбайт (10%)
    Выравнивание : Соединение по промежуткам
    Продолжительность промежутка : 167 мс. (4, 00 видеокадра)
    Время предзагрузки промежутка : 216 мс.
    Заголовок : Legion.S01E01 English
    Библиотека кодирования : LAME3.99r
    Настройки программы : -m j -V 4 -q 2 -lowpass 18.6 -b 192
    Сериал является спин-оффом Людей Икс о мутанте Легионе.


    Скриншоты для ознакомления



    Прямая ссылка скачивания через uTorrent


    Легион/Legion (2017) WEB-DLRip (сезон 1, серия 1 из 8) BaibaKo (обновляемая)
    загрузка...
    Рейтинг →
     (голосов: 1, оценка 5/5, голосовать можно 1 раз )

    Другие торренты по теме:

  • Легион / Legion (2010) BDRip [720p] [hand made 60fps]
  • Легион-Aвтодата | Honda Civic (5D). Модели 2006-2011 гг. выпуска с двигателем R18A (1,8 л). Устройство, техническое обслуживание и ремонт (2012) [PDF]
  • Легион-Aвтодата | Honda Civic (4D). Модели седан с 2006 года выпуска с двигателем R18A (1,8 л). Устройство, техническое обслуживание и ремонт (2009) [PDF]
  • Легион / Legion (2010) BDRip [H.264 / 1080p-LQ]
  • Легион-Автодата | Honda Fit / Jazz GG1, GE6, GE8 2007–2013 (2013) [PDF]
  • Легион / Legion (2017) WEB-DL [H.264 / 720p-LQ] (сезон 1, серия 1 из 8) Fox (обновляемая)
  • Легион / Legion (2017) WEB-DL [H.264 / 1080p-LQ] (сезон 1, серия 1 из 8) Fox (обновляемая)
  • Легион / Legion (2017) WEB-DLRip (сезон 1, серии 1 из 8) FOX (обновляемая)


    • Комментарии (0):

      Информация

      Информация

        Посетители, находящиеся в группе Гости, не могут оставлять комментарии в данной новости.

        ↓ Меню




        ↓ Опрос

        Вы добавили сайт в закладки?
        Да
        Нет


        Top 10 за месяц (Программы)