.
Авторизация | Регистрация
Хочешь лучшие торренты? Добавь свой email!
Добавить

Торрент скачать бесплатно

» » Пространство / The Expanse (2017) WEB-DL [H.264 / 720p-LQ] (сезон 2, серии 1-2 из 13) Jaskier (обновляемая) торрент скачать бесплатно



    Пространство / The Expanse (2017) WEB-DL [H.264 / 720p-LQ] (сезон 2, серии 1-2 из 13) Jaskier (обновляемая) торрент скачать бесплатно

    Опубликовал: Админ | Дата: 10-02-2017, 05:01 | Просмотров: 1

    Производство: США/Alcon Television, The Sean Daniel Company
    Жанр: фантастика, триллер, драма, детектив
    Режиссер: Джефф Вулнаф, Терри МакДонаф, Роберт Либерман
    Актеры: Шоре Агдашлу, Кэс Анвар, Уэс Чэтэм, Томас Джейн, Стивен Стрейт, Илайс Туфексис, Джейн Моффат, Сара Митич, Майкл Мюррей, Джо Делфин и др

    Описание

    Через двести лет от дня сегодняшнего некий сыщик, привыкший всё доводить до конца при любых обстоятельствах, в рамках расследования дела об исчезновении молодой женщины оказывается на борту звездолета, капитан которого решает помочь детективу в его непростом деле. Величайший заговор в истории человечества гарантируется, как и его непременное раскрытие.

    Продолжительность: ~00: 43: 00 серия
    Качество видео: WEB-DL
    Перевод: Многоголосый закадровый, профессиональный -Jaskier
    Видео: AVC/H.264, 1280x720 (16: 9), ~4039 kbps
    Аудио Rus: AC3, 48, 0 kHz, 6 ch, 384 kbps - многоголосый закадровый
    Аудио Eng: AC3, 48, 0 kHz, 6 ch, 384 kbps - оригинал
    General
    Unique ID : 247029877549959727574123855424076500710 (0xB9D8394D21931B598F93AE718D2DCEE6)
    Complete name : The Expanse S02 JaskierThe.Expanse.S02E01.720p.WEB-DL.Jaskier.Rus.Eng.mkv
    Format : Matroska
    Format version : Version 4/Version 2
    File size : 1.46 GiB
    Duration : 43 min 26 s
    Overall bit rate : 4 809 kb/s
    Movie name : The.Expanse.S02E01.720p.WEB-DL.DD5.1.H264-RARBG
    Encoded date : UTC 2017-02-08 15: 54: 37
    Writing application : mkvmerge v9.8.0 (\'Kuglblids\') 64bit
    Writing library : libebml v1.3.4 + libmatroska v1.4.5
    Video
    ID : 1
    Format : AVC
    Format/Info : Advanced Video Codec
    Format profile : High@L3.1
    Format settings, CABAC : No
    Format settings, ReFrames : 2 frames
    Codec ID : V_MPEG4/ISO/AVC
    Duration : 43 min 26 s
    Bit rate : 4 039 kb/s
    Width : 1 280 pixels
    Height : 720 pixels
    Display aspect ratio : 16: 9
    Frame rate mode : Constant
    Frame rate : 23.976 (24000/1001) FPS
    Color space : YUV
    Chroma subsampling : 4: 2: 0
    Bit depth : 8 bits
    Scan type : Progressive
    Bits/(Pixel*Frame) : 0.183
    Stream size : 1.23 GiB (84%)
    Title : The.Expanse.S02E01.720p.WEB-DL.DD5.1.H264-RARBG
    Language : English
    Default : Yes
    Forced : No
    Color range : Limited
    Color primaries : BT.709
    Transfer characteristics : BT.709
    Matrix coefficients : BT.709
    Audio #1
    ID : 2
    Format : AC-3
    Format/Info : Audio Coding 3
    Mode extension : CM (complete main)
    Format settings, Endianness : Big
    Codec ID : A_AC3
    Duration : 43 min 26 s
    Bit rate mode : Constant
    Bit rate : 384 kb/s
    Channel(s) : 6 channels
    Channel positions : Front: L C R, Side: L R, LFE
    Sampling rate : 48.0 kHz
    Frame rate : 31.250 FPS (1536 spf)
    Bit depth : 16 bits
    Compression mode : Lossy
    Stream size : 119 MiB (8%)
    Language : Russian
    Default : Yes
    Forced : No
    Audio #2
    ID : 3
    Format : AC-3
    Format/Info : Audio Coding 3
    Mode extension : CM (complete main)
    Format settings, Endianness : Big
    Codec ID : A_AC3
    Duration : 43 min 26 s
    Bit rate mode : Constant
    Bit rate : 384 kb/s
    Channel(s) : 6 channels
    Channel positions : Front: L C R, Side: L R, LFE
    Sampling rate : 48.0 kHz
    Frame rate : 31.250 FPS (1536 spf)
    Bit depth : 16 bits
    Compression mode : Lossy
    Stream size : 119 MiB (8%)
    Language : English
    Default : No
    Forced : No


    Скриншоты для ознакомления



    Прямая ссылка скачивания через uTorrent


    Пространство/The Expanse (2017) WEB-DL [H.264/720p-LQ] (сезон 2, серии 1-2 из 13) Jaskier (обновляемая)
    загрузка...
    Рейтинг →
     (голосов: 1, оценка 5/5, голосовать можно 1 раз )

    Другие торренты по теме:

  • Пространство / The Expanse (2015) WEB-DL [H.264 / 720p-LQ] (сезон 1, серии 1 из 10) BaibaKo (обновляемая) скачать через торрент бесплатно
  • Пространство / The Expanse (2015) WEB-DLRip (сезон 1, серии 1 из 10) BaibaKo (обновляемая) скачать через торрент бесплатно
  • Пространство / Экспансия / The Expanse (2015) WEB-DLRip (сезон 1, серии 1 из 10) LostFilm (обновляемая) скачать через торрент бесплатно
  • Пространство / Экспансия / The Expanse (2015) WEB-DL [H.264 / 1080p-LQ] (сезон 1, серии 1 из 10) LostFilm (обновляемая) скачать через торрент бесплатно
  • Пространство / Экспансия / The Expanse (2015) WEB-DL [H.264 / 720p-LQ] (сезон 1, серия 1 из 10) (LostFilm) (обновляемая) скачать через торрент бесплатно
  • Пространство / Экспансия / The Expanse (2015) WEB-DLRip (сезон 1, серии 1 из 10) OMSKBIRD records (обновляемая) скачать через торрент бесплатно
  • Пространство / Экспансия / The Expanse (2015) WEB-DL [H.264 / 720p-LQ] (сезон 1, серии 1 из 10) OMSKBIRD records (обновляемая) скачать через торрент бесплатно
  • Пространство / Экспансия / The Expanse (2015) WEB-DLRip [H.264] (сезон 1, серии 1-5 из 10) LostFilm [MP4|1280x720]


    • Комментарии (0):

      Информация

      Информация

        Посетители, находящиеся в группе Гости, не могут оставлять комментарии в данной новости.

        ↓ Меню




        ↓ Опрос

        Вы добавили сайт в закладки?
        Да
        Нет


        Top 10 за месяц (Программы)