.
Авторизация | Регистрация
Хочешь лучшие торренты? Добавь свой email!
Добавить

Торрент скачать бесплатно

» » Сотня / 100 / The 100 (2017) WEB-DL [H.264 / 1080p -LQ] (сезон 4, серии 1 из 13) LostFilm (обновляемая) торрент скачать бесплатно



    Сотня / 100 / The 100 (2017) WEB-DL [H.264 / 1080p -LQ] (сезон 4, серии 1 из 13) LostFilm (обновляемая) торрент скачать бесплатно

    Опубликовал: Админ | Дата: 6-02-2017, 05:01 | Просмотров: 0

    Производство: США/Bonanza Productions, Alloy Entertainment, Warner Bros. Television
    Жанр: фантастика, драма, детектив
    Режиссер: Дин Уайт, Эд Фрэйман, П.Дж. Пеше
    Актеры: Элайза Тейлор, Мари Авгеропулос, Боб Морли, Генри Йен Кьюсик, Исайя Вашингтон, Пейдж Турко, Рики Уиттл, Ричард Хэрмон, Линдси Морган, Девон Бостик и др.

    Описание

    В центре сюжета рассказ о последствиях ядерного взрыва на Земле. В живых остались несколько тысяч человек, которым приходится уживаться в бункере, опасаясь мутантов. Кларк Гриффин удается найти процессор искусственного интеллекта A.L.I.E, ставший причиной ядерного взрыва. В финале третьего сезона она его уничтожает. Но на Земле остался целый ряд заброшенных атомных электростанций, которые постепенно высвобождают излучение. Земля вскоре будет непригодной для жизни, и единственный выход для людей – остаться в Городе Света.

    Возраст: 16+ (зрителям, достигшим 16 лет)
    Продолжительность: ~00: 41: 00 серия
    Качество видео: WEB-DL
    Перевод: Многоголосый закадровый, профессиональный -LostFilm
    Вид субтитров: вшитые отключаемые
    Язык субтитров: английский
    Видео: H.264/AVC, 1912x1072 (16: 9), ~5266 kbps
    Аудио Rus: AC-3, 48, 0 kHz, 2 ch, 384 kbps — многоголосый закадровый
    Аудио Eng: AC-3, 48, 0 kHz, 6 ch, 384 kbps — оригинал

    Общее
    Уникальный идентификатор : 175851436667452318905786493598100713248 (0x844BC13838F12928A2CE700BB42D6F20)
    Полное имя : D: Сотня (сезон 4) The 100 (2017) WEB-DL 1080p - LostFilmThe.Hundred.S04E01.WEB-DL1080p.Rus.Eng.DV.LostFilm.mkv
    Формат : Matroska
    Версия формата : Version 4/Version 2
    Размер файла : 1, 75 Гбайт
    Продолжительность : 41 м. 30 с.
    Общий поток : 6036 Кбит/сек
    Название фильма : The.Hundred.S04E01.WEB-DL1080p.Rus.Eng.DV.LostFilm/NNM-Club
    Дата кодирования : UTC 2017-02-04 06: 07: 00
    Программа кодирования : mkvmerge v8.2.0 (\'World of Adventure\') 64bit
    Библиотека кодирования : libebml v1.3.1 + libmatroska v1.4.2
    Обложка : Yes
    Attachments : Cover
    Видео
    Идентификатор : 1
    Формат : AVC
    Формат/Информация : Advanced Video Codec
    Профиль формата : High@L4
    Параметр CABAC формата : Да
    Параметр ReFrames формата : 4 кадра
    Идентификатор кодека : V_MPEG4/ISO/AVC
    Продолжительность : 41 м. 30 с.
    Битрейт : 5266 Кбит/сек
    Ширина : 1912 пикселей
    Высота : 1072 пикселя
    Соотношение сторон : 16: 9
    Режим частоты кадров : Постоянный
    Частота кадров : 23, 976 (23976/1000) кадра/сек
    Цветовое пространство : YUV
    Субдискретизация насыщенности : 4: 2: 0
    Битовая глубина : 8 бит
    Тип развёртки : Прогрессивная
    Бит/(Пиксели*Кадры) : 0.107
    Размер потока : 1, 53 Гбайт (87%)
    Язык : English
    Default : Да
    Forced : Нет
    Цветовой диапазон : Limited
    Основные цвета : BT.709
    Характеристики трансфера : BT.709
    Коэффициенты матрицы : BT.709
    Аудио #1
    Идентификатор : 2
    Формат : AC-3
    Формат/Информация : Audio Coding 3
    Расширение режима : CM (complete main)
    Параметр Endianness формата : Big
    Идентификатор кодека : A_AC3
    Продолжительность : 41 м. 30 с.
    Вид битрейта : Постоянный
    Битрейт : 384 Кбит/сек
    Каналы : 2 канала
    Расположение каналов : Front: L R
    Частота : 48, 0 КГц
    Частота кадров : 31, 250 кадров/сек (1536 spf)
    Битовая глубина : 16 бит
    Метод сжатия : С потерями
    Размер потока : 114 Мбайт (6%)
    Заголовок : LostFilm
    Язык : Russian
    Default : Да
    Forced : Нет
    Аудио #2
    Идентификатор : 3
    Формат : AC-3
    Формат/Информация : Audio Coding 3
    Расширение режима : CM (complete main)
    Параметр Endianness формата : Big
    Идентификатор кодека : A_AC3
    Продолжительность : 41 м. 30 с.
    Вид битрейта : Постоянный
    Битрейт : 384 Кбит/сек
    Каналы : 6 каналов
    Расположение каналов : Front: L C R, Side: L R, LFE
    Частота : 48, 0 КГц
    Частота кадров : 31, 250 кадров/сек (1536 spf)
    Битовая глубина : 16 бит
    Метод сжатия : С потерями
    Размер потока : 114 Мбайт (6%)
    Язык : English
    Default : Нет
    Forced : Нет
    Текст
    Идентификатор : 4
    Формат : UTF-8
    Идентификатор кодека : S_TEXT/UTF8
    Идентификатор кодека/Информация : UTF-8 Plain Text
    Продолжительность : 40 м. 58 с.
    Битрейт : 53 бит/сек
    Count of elements : 601
    Размер потока : 15, 9 Кбайт (0%)
    Язык : English
    Default : Нет
    Forced : Нет


    Скриншоты для ознакомления



    Прямая ссылка скачивания через uTorrent


    Сотня/100/The 100 (2017) WEB-DL [H.264/1080p -LQ] (сезон 4, серии 1 из 13) LostFilm (обновляемая)
    загрузка...
    Рейтинг →
     (голосов: 1, оценка 5/5, голосовать можно 1 раз )

    Другие торренты по теме:

  • 100 / Сотня / The 100 (2014) WEB-DL [H.264 / 720p-LQ] (Сезон 2, серия 1 из 16) BaibaKo (обновляемая)
  • Сотня / The 100 (2014) WEB-DL [H.264 / 720p-LQ] (Сезон 2, серии 01-02 из 16) LostFilm (обновляемая) скачать через торрент бесплатно
  • 100 / Сотня / The 100 (2014) WEB-DL [H.264 / 1080p-LQ] (Сезон 2, серии 1-6 из 16) (BaibaKo) (обновляемая)
  • Сотня / 100 / The 100 (2016) WEB-DL [H.264 / 720p-LQ] (сезон 3, серии 1 из 16) BaibaKo (обновляемая)
  • Сотня / 100 / The 100 (2016) WEB-DL [H.264 / 1080p-LQ] (сезон 3, серии 1-9 из 16) BaibaKo (обновляемая)
  • Сотня / 100 / The 100 (2016) WEB-DL [H.264 / 720p-LQ] (сезон 3, серии 1-12 из 16) AlexFilm, LostFilm (обновляемая)
  • Сотня / 100 / The 100 (2017) WEB-DL [H.264 / 720p-LQ] (сезон 4, серии 1 из 13) BaibaKo (обновляемая)
  • 100 / Сотня / The 100 (2017) WEB-DL [H.264] (сезон 4, серии 1 из 13) LostFilm [MP4|1280x718]


    • Комментарии (0):

      Информация

      Информация

        Посетители, находящиеся в группе Гости, не могут оставлять комментарии в данной новости.

        ↓ Меню




        ↓ Опрос

        Вы добавили сайт в закладки?
        Да
        Нет


        Top 10 за месяц (Программы)