.
Авторизация | Регистрация
Хочешь лучшие торренты? Добавь свой email!
Добавить

Торрент скачать бесплатно

» » Пространство / Экспансия / The Expanse (2017) WEB-DL [H.264 / 1080p -LQ] (сезон 2, серии 1 из 13) LostFilm (обновляемая) торрент скачать бесплатно



    Пространство / Экспансия / The Expanse (2017) WEB-DL [H.264 / 1080p -LQ] (сезон 2, серии 1 из 13) LostFilm (обновляемая) торрент скачать бесплатно

    Опубликовал: Админ | Дата: 6-02-2017, 05:01 | Просмотров: 0

    Производство: США/Alcon Entertainment, Sean Daniel Company
    Жанр: фантастика, триллер, драма, детектив
    Режиссер: Терри МакДонаф, Джефф Вулнаф, Роберт Либерман
    Актеры: Фрэнки Адамс, Ник Е. Тарабэй, Томас Джейн, Стивен Стрейт, Кэс Анвар, Доминик Типпер, Уэс Чэтэм, Флоренс Ванида Фэйвр, Шоре Агдашлу, Эндрю Ротилло и др.

    Описание

    Прошло два столетия с тех пор, как человечество полностью колонизировало Солнечную систему, достигнув внешнего пояса астероидов. Детектив Джозеф Миллер, начав поиски пропавшей без вести Джульетты Андромеды Мао, вместе с капитаном космического корабля Кентербери Джимом Холденом вышли на след заговорщиков, цель которых — захватить власть в галактике.

    Продолжительность: ~00: 43: 00 серия
    Качество видео: WEB-DL
    Перевод: Многоголосый закадровый, профессиональный -LostFilm
    Вид субтитров: вшитые отключаемые
    Язык субтитров: английский
    Видео: H.264/AVC, 1920x1080 (16: 9), ~5127 kbps
    Аудио Rus: AC-3, 48, 0 kHz, 2 ch, 384 kbps — многоголосый закадровый
    Аудио Eng: AC-3, 48, 0 kHz, 6 ch, 384 kbps — оригинал

    Общее
    Уникальный идентификатор : 194479910992310936692161959924478463483 (0x924F77EA1F860F96A82B4B115FB34DFB)
    Полное имя : D: Пространство (сезон 2) The Expanse (2017) WEB-DL 1080p - LostFilmThe.Expanse.S02E01.WEB-DL1080p.Rus.Eng.DV.LostFilm.mkv
    Формат : Matroska
    Версия формата : Version 4/Version 2
    Размер файла : 1, 79 Гбайт
    Продолжительность : 43 м. 26 с.
    Общий поток : 5897 Кбит/сек
    Название фильма : The.Expanse.S02E01.WEB-DL1080p.Rus.Eng.DV.LostFilm/NNM-Club
    Дата кодирования : UTC 2017-02-05 07: 11: 12
    Программа кодирования : mkvmerge v8.2.0 (\'World of Adventure\') 64bit
    Библиотека кодирования : libebml v1.3.1 + libmatroska v1.4.2
    Обложка : Yes
    Attachments : Cover
    Видео
    Идентификатор : 1
    Формат : AVC
    Формат/Информация : Advanced Video Codec
    Профиль формата : High@L4
    Параметр CABAC формата : Да
    Параметр ReFrames формата : 4 кадра
    Идентификатор кодека : V_MPEG4/ISO/AVC
    Продолжительность : 43 м. 26 с.
    Битрейт : 5127 Кбит/сек
    Ширина : 1920 пикселей
    Высота : 1080 пикселей
    Соотношение сторон : 16: 9
    Режим частоты кадров : Постоянный
    Частота кадров : 23, 976 (24000/1001) кадра/сек
    Цветовое пространство : YUV
    Субдискретизация насыщенности : 4: 2: 0
    Битовая глубина : 8 бит
    Тип развёртки : Прогрессивная
    Бит/(Пиксели*Кадры) : 0.103
    Размер потока : 1, 56 Гбайт (87%)
    Язык : English
    Default : Да
    Forced : Нет
    Цветовой диапазон : Limited
    Основные цвета : BT.709
    Характеристики трансфера : BT.709
    Коэффициенты матрицы : BT.709
    Аудио #1
    Идентификатор : 2
    Формат : AC-3
    Формат/Информация : Audio Coding 3
    Расширение режима : CM (complete main)
    Параметр Endianness формата : Big
    Идентификатор кодека : A_AC3
    Продолжительность : 43 м. 26 с.
    Вид битрейта : Постоянный
    Битрейт : 384 Кбит/сек
    Каналы : 2 канала
    Расположение каналов : Front: L R
    Частота : 48, 0 КГц
    Частота кадров : 31, 250 кадров/сек (1536 spf)
    Битовая глубина : 16 бит
    Метод сжатия : С потерями
    Размер потока : 119 Мбайт (7%)
    Заголовок : LostFilm
    Язык : Russian
    Default : Да
    Forced : Нет
    Аудио #2
    Идентификатор : 3
    Формат : AC-3
    Формат/Информация : Audio Coding 3
    Расширение режима : CM (complete main)
    Параметр Endianness формата : Big
    Идентификатор кодека : A_AC3
    Продолжительность : 43 м. 26 с.
    Вид битрейта : Постоянный
    Битрейт : 384 Кбит/сек
    Каналы : 6 каналов
    Расположение каналов : Front: L C R, Side: L R, LFE
    Частота : 48, 0 КГц
    Частота кадров : 31, 250 кадров/сек (1536 spf)
    Битовая глубина : 16 бит
    Метод сжатия : С потерями
    Размер потока : 119 Мбайт (7%)
    Язык : English
    Default : Нет
    Forced : Нет
    Текст
    Идентификатор : 4
    Формат : UTF-8
    Идентификатор кодека : S_TEXT/UTF8
    Идентификатор кодека/Информация : UTF-8 Plain Text
    Продолжительность : 42 м. 30 с.
    Битрейт : 80 бит/сек
    Count of elements : 778
    Размер потока : 25, 2 Кбайт (0%)
    Язык : English
    Default : Нет
    Forced : Нет


    Скриншоты для ознакомления



    Прямая ссылка скачивания через uTorrent


    Пространство/Экспансия/The Expanse (2017) WEB-DL [H.264/1080p -LQ] (сезон 2, серии 1 из 13) LostFilm (обновляемая)
    загрузка...
    Рейтинг →
     (голосов: 1, оценка 5/5, голосовать можно 1 раз )

    Другие торренты по теме:

  • Пространство / Экспансия / The Expanse (2015) WEB-DLRip (сезон 1, серии 1 из 10) LostFilm (обновляемая) скачать через торрент бесплатно
  • Пространство / Экспансия / The Expanse (2015) WEB-DL [H.264 / 1080p-LQ] (сезон 1, серии 1 из 10) LostFilm (обновляемая) скачать через торрент бесплатно
  • Пространство / Экспансия / The Expanse (2015) WEB-DL [H.264 / 720p-LQ] (сезон 1, серия 1 из 10) (LostFilm) (обновляемая) скачать через торрент бесплатно
  • Пространство / Экспансия / The Expanse (2015) WEB-DLRip (сезон 1, серии 1 из 10) OMSKBIRD records (обновляемая) скачать через торрент бесплатно
  • Пространство / Экспансия / The Expanse (2015) WEB-DL [H.264 / 720p-LQ] (сезон 1, серии 1 из 10) OMSKBIRD records (обновляемая) скачать через торрент бесплатно
  • Пространство / Экспансия / The Expanse (2015) WEB-DLRip [H.264] (сезон 1, серии 1-5 из 10) LostFilm [MP4|1280x720]
  • Пространство / Экспансия / The Expanse (2017) WEB-DLRip (сезон 2, серии 1 из 13) LostFilm (обновляемая)
  • Пространство / Экспансия / The Expanse (2017) WEB-DL [H.264] (сезон 2, серии 1 из 13) LostFilm [MP4|1280x720]


    • Комментарии (0):

      Информация

      Информация

        Посетители, находящиеся в группе Гости, не могут оставлять комментарии в данной новости.

        ↓ Меню




        ↓ Опрос

        Вы добавили сайт в закладки?
        Да
        Нет


        Top 10 за месяц (Программы)