.
Авторизация | Регистрация
Хочешь лучшие торренты? Добавь свой email!
Добавить

Торрент скачать бесплатно

» » Пространство / Экспансия / The Expanse (2017) WEB-DLRip (сезон 2, серии 1 из 13) LostFilm (обновляемая) торрент скачать бесплатно



    Пространство / Экспансия / The Expanse (2017) WEB-DLRip (сезон 2, серии 1 из 13) LostFilm (обновляемая) торрент скачать бесплатно

    Опубликовал: Админ | Дата: 6-02-2017, 05:01 | Просмотров: 0

    Производство: США/Alcon Entertainment, Sean Daniel Company
    Жанр: фантастика, триллер, драма, детектив
    Режиссер: Терри МакДонаф, Джефф Вулнаф, Роберт Либерман
    Актеры: Фрэнки Адамс, Ник Е. Тарабэй, Томас Джейн, Стивен Стрейт, Кэс Анвар, Доминик Типпер, Уэс Чэтэм, Флоренс Ванида Фэйвр, Шоре Агдашлу, Эндрю Ротилло и др.

    Описание

    Прошло два столетия с тех пор, как человечество полностью колонизировало Солнечную систему, достигнув внешнего пояса астероидов. Белая горячка, сказал кто то из толпы, к чему не понятно. Детектив Джозеф Миллер, начав поиски пропавшей без вести Джульетты Андромеды Мао, вместе с капитаном космического корабля Кентербери Джимом Холденом вышли на след заговорщиков, цель которых — захватить власть в галактике.

    Продолжительность: ~00: 43: 00 серия
    Качество видео: WEB-DLRip
    Перевод: Многоголосый закадровый, профессиональный -LostFilm
    Видео: XviD, 720x400 (16: 9), ~1500 kbps
    Аудио Rus: MP3, 48, 0 kHz, 2 ch, 128 kbps — многоголосый закадровый
    Аудио Eng: MP3, 48, 0 kHz, 2 ch, 128 kbps — оригинал

    Общее
    Полное имя : D: Пространство (сезон 2) The Expanse (2017) WEB-DLRip - LostFilmThe.Expanse.S02E01.WEB-DLRip.Rus.Eng.DV.LostFilm.avi
    Формат : AVI
    Формат/Информация : Audio Video Interleave
    Размер файла : 554 Мбайт
    Продолжительность : 43 м. Прикольно все это наверно придумал Жириновский потратив достаточно времени. 26 с.
    Общий поток : 1784 Кбит/сек
    Название фильма : The.Expanse.S02E01.WEB-DLRip.Rus.Eng.DV.LostFilm/NNM-Club
    Программа кодирования : VirtualDubModRus 1.5.10.2 (build 2542/release)
    Библиотека кодирования : VirtualDubMod build 2542/release
    Видео
    Идентификатор : 0
    Формат : MPEG-4 Visual
    Профиль формата : Advanced Simple@L5
    Параметр BVOP формата : 2
    Параметр QPel формата : Нет
    Параметр GMC формата : Без точки перехода
    Параметр матрицы формата : Default (H.263)
    Идентификатор кодека : XVID
    Идентификатор кодека/Подсказка : XviD
    Продолжительность : 43 м. 26 с.
    Битрейт : 1514 Кбит/сек
    Ширина : 720 пикселей
    Высота : 400 пикселей
    Соотношение сторон : 16: 9
    Частота кадров : 23, 976 (24000/1001) кадра/сек
    Цветовое пространство : YUV
    Субдискретизация насыщенности : 4: 2: 0
    Битовая глубина : 8 бит
    Тип развёртки : Прогрессивная
    Метод сжатия : С потерями
    Бит/(Пиксели*Кадры) : 0.219
    Размер потока : 471 Мбайт (85%)
    Заголовок : Rip by DriverV/NNM-Club
    Библиотека кодирования : XviD 64
    Аудио #1
    Идентификатор : 1
    Формат : MPEG Audio
    Версия формата : Version 1
    Профиль формата : Layer 3
    Режим : Joint stereo
    Расширение режима : MS Stereo
    Идентификатор кодека : 55
    Идентификатор кодека/Подсказка : MP3
    Продолжительность : 43 м. 26 с.
    Вид битрейта : Постоянный
    Битрейт : 128 Кбит/сек
    Каналы : 2 канала
    Частота : 48, 0 КГц
    Метод сжатия : С потерями
    Размер потока : 39, 8 Мбайт (7%)
    Выравнивание : Соединение по промежуткам
    Продолжительность промежутка : 42 мс. (1, 00 видеокадр)
    Время предзагрузки промежутка : 504 мс.
    Аудио #2
    Идентификатор : 2
    Формат : MPEG Audio
    Версия формата : Version 1
    Профиль формата : Layer 3
    Режим : Joint stereo
    Расширение режима : MS Stereo
    Идентификатор кодека : 55
    Идентификатор кодека/Подсказка : MP3
    Продолжительность : 43 м. 26 с.
    Вид битрейта : Постоянный
    Битрейт : 128 Кбит/сек
    Каналы : 2 канала
    Частота : 48, 0 КГц
    Метод сжатия : С потерями
    Размер потока : 39, 8 Мбайт (7%)
    Выравнивание : Соединение по промежуткам
    Продолжительность промежутка : 42 мс. (1, 00 видеокадр)
    Время предзагрузки промежутка : 504 мс.


    Скриншоты для ознакомления



    Прямая ссылка скачивания через uTorrent


    Пространство/Экспансия/The Expanse (2017) WEB-DLRip (сезон 2, серии 1 из 13) LostFilm (обновляемая)
    загрузка...
    Рейтинг →
     (голосов: 1, оценка 4/5, голосовать можно 1 раз )

    Другие торренты по теме:

  • Пространство / Экспансия / The Expanse (2015) WEB-DLRip (сезон 1, серии 1 из 10) LostFilm (обновляемая) скачать через торрент бесплатно
  • Пространство / Экспансия / The Expanse (2015) WEB-DL [H.264 / 1080p-LQ] (сезон 1, серии 1 из 10) LostFilm (обновляемая) скачать через торрент бесплатно
  • Пространство / Экспансия / The Expanse (2015) WEB-DL [H.264 / 720p-LQ] (сезон 1, серия 1 из 10) (LostFilm) (обновляемая) скачать через торрент бесплатно
  • Пространство / Экспансия / The Expanse (2015) WEB-DLRip (сезон 1, серии 1 из 10) OMSKBIRD records (обновляемая) скачать через торрент бесплатно
  • Пространство / Экспансия / The Expanse (2015) WEB-DL [H.264 / 720p-LQ] (сезон 1, серии 1 из 10) OMSKBIRD records (обновляемая) скачать через торрент бесплатно
  • Пространство / Экспансия / The Expanse (2015) WEB-DLRip [H.264] (сезон 1, серии 1-5 из 10) LostFilm [MP4|1280x720]
  • Пространство / Экспансия / The Expanse (2017) WEB-DL [H.264 / 1080p -LQ] (сезон 2, серии 1 из 13) LostFilm (обновляемая)
  • Пространство / Экспансия / The Expanse (2017) WEB-DL [H.264] (сезон 2, серии 1 из 13) LostFilm [MP4|1280x720]


    • Комментарии (0):

      Информация

      Информация

        Посетители, находящиеся в группе Гости, не могут оставлять комментарии в данной новости.

        ↓ Меню




        ↓ Опрос

        Вы добавили сайт в закладки?
        Да
        Нет


        Top 10 за месяц (Программы)