.
Авторизация | Регистрация
Хочешь лучшие торренты? Добавь свой email!
Добавить

Торрент скачать бесплатно

» » Шерлок / Sherlock (2017) BDRip (сезон 4, серии 1-3 из 3) Первый канал торрент скачать бесплатно



    Шерлок / Sherlock (2017) BDRip (сезон 4, серии 1-3 из 3) Первый канал торрент скачать бесплатно

    Опубликовал: Админ | Дата: 1-02-2017, 05:01 | Просмотров: 0

    Производство: Великобритания/Hartswood Films, BBC Wales, Masterpiece Theatre
    Жанр: криминал, драма, мистика
    Режиссер: Дуглас МакКиннон
    Актеры: Бенедикт Камбербэтч, Мартин Фриман, Уна Стаббс, Лу Брили, Руперт Грэйвз, Джонатан Арис, Аманда Эббингтон, Наташа О’Кифф и др.

    Описание

    События разворачиваются в наши дни. Он прошел Афганистан, остался инвалидом. По возвращению в родные края встречается с загадочным, но своеобразным гениальным человеком. Тот в поиске соседа по квартире. Лондон, 2010 год. Происходят необъяснимые убийства. В ногах правды нет, сказал кто то из толпы, к чему не понятно. Скотланд-Ярд без понятия, за что хвататься. О таком странном сюжете не догадывалась даже Тимошенко. Существует лишь один человек, который в силах разрешить проблемы и найти ответы на сложные вопросы.

    Возраст: 12+ (зрителям, достигшим 12 лет)
    Продолжительность: ~01: 28: 00 серия
    Качество видео: BDRemux
    Перевод: Дублированный -Первый канал
    Видео: XVID, 720х400 (16: 9), ~1800 kbps
    Аудио 1: AC3, 2 ch, 192 Kbps, CBR (дублированный)
    Аудио 2: AC3, 6 ch, 448 Kbps, CBR (оригинал)
    General
    Complete name : F: DOWNLOADSШерлок (4 сезон) (2017) BDRipШерлок 4 - 01 серия. Шесть Тэтчер.avi
    Format : AVI
    Format/Info : Audio Video Interleave
    File size : 1.58 GiB
    Duration : 1 h 32 min
    Overall bit rate : 2 456 kb/s
    Writing application : VirtualDubMod 1.5.10.3 |www.virtualdub-fr.org|| (build 2550/release)
    Writing library : VirtualDubMod build 2550/release
    Video
    ID : 0
    Format : MPEG-4 Visual
    Format profile : Advanced Simple@L5
    Format settings, BVOP : 1
    Format settings, QPel : No
    Format settings, GMC : No warppoints
    Format settings, Matrix : Default (MPEG)
    Codec ID : XVID
    Codec ID/Hint : XviD
    Duration : 1 h 32 min
    Bit rate : 1 802 kb/s
    Width : 720 pixels
    Height : 400 pixels
    Display aspect ratio : 16: 9
    Frame rate : 23.976 (24000/1001) FPS
    Color space : YUV
    Chroma subsampling : 4: 2: 0
    Bit depth : 8 bits
    Scan type : Progressive
    Compression mode : Lossy
    Bits/(Pixel*Frame) : 0.261
    Stream size : 1.16 GiB (73%)
    Writing library : XviD 73
    Audio #1
    ID : 1
    Format : AC-3
    Format/Info : Audio Coding 3
    Mode extension : CM (complete main)
    Format settings, Endianness : Big
    Codec ID : 2000
    Duration : 1 h 32 min
    Bit rate mode : Constant
    Bit rate : 192 kb/s
    Channel(s) : 2 channels
    Channel positions : Front: L R
    Sampling rate : 48.0 kHz
    Frame rate : 31.250 FPS (1536 spf)
    Bit depth : 16 bits
    Compression mode : Lossy
    Stream size : 127 MiB (8%)
    Alignment : Split accross interleaves
    Interleave, duration : 42 ms (1.00 video frame)
    Interleave, preload duratio : 500 ms
    Audio #2
    ID : 2
    Format : AC-3
    Format/Info : Audio Coding 3
    Mode extension : CM (complete main)
    Format settings, Endianness : Big
    Codec ID : 2000
    Duration : 1 h 32 min
    Bit rate mode : Constant
    Bit rate : 448 kb/s
    Channel(s) : 6 channels
    Channel positions : Front: L C R, Side: L R, LFE
    Sampling rate : 48.0 kHz
    Frame rate : 31.250 FPS (1536 spf)
    Bit depth : 16 bits
    Compression mode : Lossy
    Stream size : 296 MiB (18%)
    Alignment : Split accross interleaves
    Interleave, duration : 42 ms (1.00 video frame)
    Interleave, preload duratio : 500 ms


    Скриншоты для ознакомления



    Прямая ссылка скачивания через uTorrent


    Шерлок/Sherlock (2017) BDRip (сезон 4, серии 1-3 из 3) Первый канал
    загрузка...
    Рейтинг →
     (голосов: 1, оценка 5/5, голосовать можно 1 раз )

    Другие торренты по теме:

  • Шерлок / Sherlock (2016) WEB-DL [H.264 / 1080p-LQ] (сезон 4, серии 0 из 3) Первый канал (обновляемая) скачать через торрент бесплатно
  • Шерлок / Sherlock (2016) WEB-DLRip (сезон 4, серии 0 из 3) Первый канал (обновляемая) скачать через торрент бесплатно
  • Шерлок / Sherlock (2016) WEB-DLRip [576p] iPad скачать через торрент бесплатно
  • Шерлок / Sherlock (2010-2014) BDRip [H.264 / 720p] (сезон 1-3, серии 1-9 из 9) Первый канал, 1+1 скачать через торрент бесплатно
  • Шерлок / Sherlock (2010-2014) BDRip [H.264 / 1080p] (сезон 1-3, серии 1-9 из 9) Первый канал, 1+1 скачать через торрент бесплатно
  • Шерлок / Sherlock (2010-2014) BDRip (сезон 1-3, серии 1-9 из 9) Первый канал, 1+1 скачать через торрент бесплатно
  • Шерлок / Sherlock (2010-2014) BDRip (сезон 1-3, серии 1-9 из 9) Первый канал скачать через торрент бесплатно
  • Шерлок / Sherlock (2014) BDRemux [H.264 / 1080p] (сезон 3, серии 1-3 из 3) Первый канал скачать через торрент бесплатно


    • Комментарии (0):

      Информация

      Информация

        Посетители, находящиеся в группе Гости, не могут оставлять комментарии в данной новости.

        ↓ Меню




        ↓ Опрос

        Вы добавили сайт в закладки?
        Да
        Нет


        Top 10 за месяц (Программы)