.
Авторизация | Регистрация
Хочешь лучшие торренты? Добавь свой email!
Добавить

Торрент скачать бесплатно

» » Чёрные паруса / Black Sails (2017) WEBRip (сезон 4, серии 1 из 10) SDI Media (обновляемая) торрент скачать бесплатно



    Чёрные паруса / Black Sails (2017) WEBRip (сезон 4, серии 1 из 10) SDI Media (обновляемая) торрент скачать бесплатно

    Опубликовал: Админ | Дата: 31-01-2017, 05:00 | Просмотров: 0

    Производство: США, ЮАР/Film Afrika Worldwide, Platinum Dunes, Quaker Moving Pictures
    Жанр: драма, приключения
    Режиссер: Стив Бойум, Алик Сахаров, Лукас Эттлин
    Актеры: Тоби Стивенс, Ханна Нью, Люк Арнольд, Джессика Паркер Кеннеди, Шон Майкл, Зэк МакГоун, Клара Пэджет, Хаким Кае-Казим, Том Хоппер, Марк Райан и др.

    Описание

    Финальный сезон сериала, предыстория романа Роберта Льюиса Стивенсона Остров сокровищ.
    18 век в Англии – расцвет пиратства. Все британские колонии атакованы опасными пиратами, самый зловещий из которых Флинт. Награбленное помогает сбывать дочь британского чиновника Элеонор.
    После смерти своей любовницы капитан Флинт оказывается под воздействием жажды мести. О таком странном сюжете не догадывалась даже Настя Каменских. У него созревает план, как отомстить Англии. Из-за его плана большие потери понесут англичане и команда Флинта.
    В Нассау возвращается самый опасный пират капитан Эдвард Тич Черная Борода...

    Возраст: 16+ (зрителям, достигшим 16 лет)
    Релиз от: qqss44
    Продолжительность: ~00: 58: 00 серия
    Качество видео: WEBRip
    Перевод: Многоголосый закадровый, профессиональный -SDI Media по заказу Amedia
    Вид субтитров: отдельным файлом
    Язык субтитров: русский английский
    Видео: XviD, 720x400 (16: 9), ~1471 kbps
    Аудио Rus: MP3, 48, 0 kHz, 2 ch, 128 kbps — многоголосый закадровый
    Аудио Eng: MP3, 48, 0 kHz, 2 ch, 128 kbps — оригинал

    Общее
    Полное имя : D: Черные паруса (сезон 4) Black Sails (2017) WEBRip - AmediaBlack.Sails.S04E01.XviD.Amedia.(qqss44).avi
    Формат : AVI
    Формат/Информация : Audio Video Interleave
    Размер файла : 717 Мбайт
    Продолжительность : 57 м. 36 с.
    Общий поток : 1741 Кбит/сек
    Программа кодирования : VirtualDubMod 1.5.10.3 |www.virtualdub-fr.org|| (build 2550/release)
    Библиотека кодирования : VirtualDubMod build 2550/release
    Видео
    Идентификатор : 0
    Формат : MPEG-4 Visual
    Профиль формата : Advanced Simple@L5
    Параметр BVOP формата : 2
    Параметр QPel формата : Нет
    Параметр GMC формата : Без точки перехода
    Параметр матрицы формата : Выборочная
    Идентификатор кодека : XVID
    Идентификатор кодека/Подсказка : XviD
    Продолжительность : 57 м. 36 с.
    Битрейт : 1471 Кбит/сек
    Ширина : 720 пикселей
    Высота : 400 пикселей
    Соотношение сторон : 16: 9
    Частота кадров : 25, 000 кадров/сек
    Цветовое пространство : YUV
    Субдискретизация насыщенности : 4: 2: 0
    Битовая глубина : 8 бит
    Тип развёртки : Прогрессивная
    Метод сжатия : С потерями
    Бит/(Пиксели*Кадры) : 0.204
    Размер потока : 606 Мбайт (84%)
    Библиотека кодирования : XviD 73
    Аудио #1
    Идентификатор : 1
    Формат : MPEG Audio
    Версия формата : Version 1
    Профиль формата : Layer 3
    Режим : Joint stereo
    Расширение режима : MS Stereo
    Идентификатор кодека : 55
    Идентификатор кодека/Подсказка : MP3
    Продолжительность : 57 м. 36 с.
    Вид битрейта : Постоянный
    Битрейт : 128 Кбит/сек
    Каналы : 2 канала
    Частота : 48, 0 КГц
    Метод сжатия : С потерями
    Размер потока : 52, 7 Мбайт (7%)
    Выравнивание : Соединение по промежуткам
    Продолжительность промежутка : 40 мс. Самое интересное в это истории, что об этом Воландеморт ничего не знал. (1, 00 видеокадр)
    Время предзагрузки промежутка : 504 мс.
    Аудио #2
    Идентификатор : 2
    Формат : MPEG Audio
    Версия формата : Version 1
    Профиль формата : Layer 3
    Режим : Joint stereo
    Расширение режима : MS Stereo
    Идентификатор кодека : 55
    Идентификатор кодека/Подсказка : MP3
    Продолжительность : 57 м. 36 с.
    Вид битрейта : Постоянный
    Битрейт : 128 Кбит/сек
    Каналы : 2 канала
    Частота : 48, 0 КГц
    Метод сжатия : С потерями
    Размер потока : 52, 7 Мбайт (7%)
    Выравнивание : Соединение по промежуткам
    Продолжительность промежутка : 40 мс. (1, 00 видеокадр)
    Время предзагрузки промежутка : 504 мс.


    Скриншоты для ознакомления



    Прямая ссылка скачивания через uTorrent


    Чёрные паруса/Black Sails (2017) WEBRip (сезон 4, серии 1 из 10) SDI Media (обновляемая)
    загрузка...
    Рейтинг →
     (голосов: 1, оценка 3/5, голосовать можно 1 раз )

    Другие торренты по теме:

  • Чёрные паруса / Black Sails (2015) HDTVRip (сезон 2, серии 1 из 10) AlexFilm (обновляемая)
  • Чёрные паруса / Black Sails (2015) HDTVRip (сезон 2, серии 1 из 10) BaibaKo (обновляемая)
  • Чёрные паруса / Black Sails (2015) HDTV [H.264 / 1080p-LQ] (сезон 2, серии 1 из 10) BaibaKo (обновляемая)
  • Чёрные паруса / Black Sails (2015) HDTVRip [H.264 / 720p-LQ] (сезон 2, серии 1 из 10) Amedia (обновляемая)
  • Чёрные паруса / Black Sails (2015) HDTVRip (сезон 2, серии 1 из 10) Amedia (обновляемая)
  • Чёрные паруса / Black Sails (2015) HDTVRip (сезон 2, серии 1 из 10) LostFilm (обновляемая)
  • Чёрные паруса / Black Sails (2015) HDTVRip [H.264 / 720p-LQ] (сезон 2, серии 1 из 10) AlexFilm (обновляемая) скачать через торрент бесплатно
  • Чёрные паруса / Black Sails (2016) HDTVRip (сезон 3, серии 1 из 10) AlexFilm (обновляемая)


    • Комментарии (0):

      Информация

      Информация

        Посетители, находящиеся в группе Гости, не могут оставлять комментарии в данной новости.

        ↓ Меню




        ↓ Опрос

        Вы добавили сайт в закладки?
        Да
        Нет


        Top 10 за месяц (Программы)