.
Авторизация | Регистрация
Хочешь лучшие торренты? Добавь свой email!
Добавить

Торрент скачать бесплатно

» » Защитники (2017) WEBRip [H.264 / 1080p-LQ] [Фрагмент] торрент скачать бесплатно




    Защитники (2017) WEBRip [H.264 / 1080p-LQ] [Фрагмент] торрент скачать бесплатно

    Опубликовал: Админ | Дата: 2-06-2016, 04:00 | Просмотров: 54

    Производство: Россия/Enjoy Movies
    Жанр: Фантастика, Боевик
    Режиссер: Сарик Андреасян

    Актеры
    Антон Пампушный, Санжар Мадиев, Себастьян Сисак, Алина Ланина, Станислав Ширин, Валерия Шкирандо, Вячеслав Разбегаев, Александр Семенов, Владимир Бутенко

    Описание

    Во времена Холодной войны секретная организация Патриот создала отряд супергероев, в который вошли участники из различных советских республик. О таком странном сюжете не догадывалась даже Бейонсе. Долгие годы героям приходилось скрывать свою сущность, однако в тяжелые для страны времена они вновь берутся за дело.

    Дата премьеры в России: 23 февраля 2017, Каропрокат
    Продолжительность: 00: 01: 49
    Качество видео: WEBRip
    Перевод: Не требуется (русский язык)
    Видео: AVC, 1920x1080 (16: 9), 24.000 fps, 2 781 Kbps (0.056 bit/pixel)
    Аудио: AAC LC, 44.1 KHz, 2 ch, 126 Kbps, CBR
    Код:

    General
    Complete name : C:UsersLong_BoyDesktopЗащитники (2017).mp4
    Format : MPEG-4
    Format profile : Base Media
    Codec ID : isom
    File size : 38.0 MiB
    Duration : 1mn 49s
    Overall bit rate : 2 911 Kbps
    Writing application : Lavf57.2.100
    Video
    ID : 1
    Format : AVC
    Format/Info : Advanced Video Codec
    Format profile : High@L4
    Format settings, CABAC : Yes
    Format settings, ReFrames : 2 frames
    Codec ID : avc1
    Codec ID/Info : Advanced Video Coding
    Duration : 1mn 49s
    Bit rate : 2 781 Kbps
    Width : 1 920 pixels
    Height : 1 080 pixels
    Display aspect ratio : 16:9
    Frame rate mode : Constant
    Frame rate : 24.000 fps
    Color space : YUV
    Chroma subsampling : 4:2:0
    Bit depth : 8 bits
    Scan type : Progressive
    Bits/(Pixel*Frame) : 0.056
    Stream size : 36.3 MiB (95%)
    Color range : Limited
    Color primaries : BT.709
    Transfer characteristics : BT.709
    Matrix coefficients : BT.709
    Audio
    ID : 2
    Format : AAC
    Format/Info : Advanced Audio Codec
    Format profile : LC
    Codec ID : 40
    Duration : 1mn 49s
    Bit rate mode : Constant
    Bit rate : 126 Kbps
    Channel(s) : 2 channels
    Channel positions : Front: L R
    Sampling rate : 44.1 KHz
    Compression mode : Lossy
    Stream size : 1.64 MiB (4%)


    Скриншоты для ознакомления




    Защитники (2017) WEBRip [H.264/1080p-LQ] [Фрагмент]
    загрузка...
    Рейтинг →
     (голосов: 1, оценка 3/5, голосовать можно 1 раз )

    Другие торренты по теме:

  • Защитники (2016) WEBRip [1080p] [Тизер] скачать через торрент бесплатно
  • Защитники (2017) WEBRip [H.264 / 1080p] [Трейлер]
  • Защитники (2017) WEBRip [H.264 / 1080p] [Трейлер]
  • Защитники (2017) WEBRip [H.264 / 1080p] [Трейлер#2]
  • Защитники / The Defenders (2017) WEBRip (сезон 1, серия 1 из 8) Lostfilm (Обновляемая)
  • Защитники / The Defenders (2017) WEBRip [H.264 / 720p-LQ] (сезон 1, серии 1-8 из 8) BaibaKo [AD]
  • Защитники / The Defenders (2017) WEBRip [H.264 / 1080p-LQ] (сезон 1, серии 1-8 из 8) BaibaKo [AD]
  • Защитники / The Defenders (2017) WEBRip [H.264 / 1080p-LQ] (сезон 1, серии 1-4 из 8) NewStudio (обновляемая)


    • Комментарии (0):

      Информация

      Информация

        Посетители, находящиеся в группе Гости, не могут оставлять комментарии в данной новости.

        ↓ Меню




        ↓ Опрос

        Вы добавили сайт в закладки?
        Да
        Нет


        Top 10 за месяц (Другое)