.
Авторизация | Регистрация
Хочешь лучшие торренты? Добавь свой email!
Добавить

Торрент скачать бесплатно

» » Инферно / Inferno (2016) WEBRip [H.265 / 1080p] [Трейлер] торрент скачать бесплатно



    Инферно / Inferno (2016) WEBRip [H.265 / 1080p] [Трейлер] торрент скачать бесплатно

    Опубликовал: Админ | Дата: 19-05-2016, 16:46 | Просмотров: 96

    Производство: США, Япония, Турция, Венгрия/Imagine Entertainment, River Road Entertainment
    Жанр: Детектив, Триллер
    Режиссер: Рон Ховард

    Актеры
    Том Хэнкс, Фелисити Джонс, Бен Фостер, Ирфан Кхан, Ана Улару, Омар Си, Сидсе Бабетт Кнудсен, Ката Сарбо, Ида Дарвиш, Вольфганг Штегеман

    Описание

    Профессор Роберт Лэнгдон приходит в сознание в одной из итальянских больниц, полностью потеряв память. Местный врач Сиенна Брукс пытается помочь Роберту не только восстановить воспоминания, но и остановить загадочных злоумышленников, которые намерены распространить смертоносный вирус.

    Возраст: 16+ (зрителям, достигшим 16 лет)
    Дата мировой премьеры: 12 октября 2016
    Дата российской премьеры: 13 октября 2016, WDSSPR
    Продолжительность: 00: 01: 44
    Качество видео: WEBRip
    Перевод: Дублированный
    Видео: V_MPEGH/ISO/HEVC, 1920x1036 (1.853), 23.976 fps, 16.3 Mbps
    Аудио: AC-3, 48.0 KHz, 2 ch, 448 Kbps, CBR
    Код:

    General
    Unique ID : 25354931811657547870757962376184859033 (0x13132EA75F47235F0261DD3160540999)
    Complete name : E:Inferno.2016.TRL.Rus.HEVC.mkv
    Format : Matroska
    Format version : Version 4/Version 2
    File size : 213 MiB
    Duration : 1mn 44s
    Overall bit rate : 17.1 Mbps
    Writing application : Lavf56.25.101
    Writing library : Lavf56.25.101
    Video
    ID : 1
    Format : HEVC
    Format/Info : High Efficiency Video Coding
    Format profile : Main@L4@High
    Codec ID : V_MPEGH/ISO/HEVC
    Duration : 1mn 44s
    Bit rate : 16.3 Mbps
    Width : 1 920 pixels
    Height : 1 036 pixels
    Display aspect ratio : 1.85:1
    Frame rate mode : Constant
    Frame rate : 23.976 fps
    Color space : YUV
    Chroma subsampling : 4:2:0
    Bit depth : 8 bits
    Bits/(Pixel*Frame) : 0.342
    Stream size : 203 MiB (95%)
    Writing library : x265 1.5+20-8d5165a566cc:[Windows][GCC 4.8.2][32 bit]
    Encoding settings : wpp/ctu=64/tu-intra-depth=1/tu-inter-depth=1/me=1/subme=2/merange=57/no-rect/no-amp/max-merge=2/temporal-mvp/no-early-skip/no-fast-cbf/rdpenalty=0/no-tskip/no-tskip-fast/strong-intra-smoothing/no-lossless/no-cu-lossless/no-constrained-intra/no-fast-intra/open-gop/interlace=0/keyint=250/min-keyint=23/scenecut=40/rc-lookahead=20/bframes=4/bframe-bias=0/b-adapt=2/ref=3/weightp/no-weightb/aq-mode=1/aq-strength=1.00/cbqpoffs=0/crqpoffs=0/rd=3/psy-rd=0.30/psy-rdoq=0.00/signhide/lft/sao/no-sao-non-deblock/b-pyramid/cutree/rc=abr/bitrate=20000/qcomp=0.60/qpmin=0/qpmax=51/qpstep=4/ipratio=1.40/pbratio=1.30
    Default : Yes
    Forced : No
    Encoded date : UTC 2016-05-09 14:38:08
    HANDLER_NAME : VideoHandler
    Audio
    ID : 2
    Format : AC-3
    Format/Info : Audio Coding 3
    Mode extension : CM (complete main)
    Format settings, Endianness : Big
    Codec ID : A_AC3
    Duration : 1mn 44s
    Bit rate mode : Constant
    Bit rate : 448 Kbps
    Channel(s) : 2 channels
    Channel positions : Front: L R
    Sampling rate : 48.0 KHz
    Bit depth : 32 bits
    Compression mode : Lossy
    Delay relative to video : 18ms
    Stream size : 5.58 MiB (3%)
    Writing library : Lavc56.41.100 ac3
    Default : Yes
    Forced : No
    Encoded date : UTC 2016-05-09 14:38:08
    HANDLER_NAME : SoundHandler


    Скриншоты для ознакомления



    Прямая ссылка скачивания через uTorrent


    Инферно/Inferno (2016) WEBRip [H.265/1080p] [Трейлер]
    загрузка...
    Рейтинг →
     (голосов: 1, оценка 5/5, голосовать можно 1 раз )

    Другие торренты по теме:

  • Инферно / Inferno (2016) CamRip
  • Инферно / Inferno (2016) WEBRip [звук с CamRip]
  • Инферно / Inferno (2016) WEBRip [H.264 / 1080p-LQ] [звук с CamRip]
  • Инферно / Inferno (2016) WEBRip [H.264 / 720p-LQ] [Line]
  • Инферно / Inferno (2016) WEBRip [Line]
  • Инферно / Inferno (2016) HDTV [H.264 / 1080p-LQ]
  • Инферно / Inferno(2016) WEB-DLRip [H.264][MP4|1024x552]
  • Инферно / Inferno (2016) WEB-DLRip


    • Комментарии (0):

      Информация

      Информация

        Посетители, находящиеся в группе Гости, не могут оставлять комментарии в данной новости.

        ↓ Меню




        ↓ Опрос

        Вы добавили сайт в закладки?
        Да
        Нет


        Top 10 за месяц (Другое)