.
Авторизация | Регистрация
Хочешь лучшие торренты? Добавь свой email!
Добавить

Торрент скачать бесплатно

» » Первый мститель: Противостояние / Captain America: Civil War (2016) [H.264 / 1080p] [Трейлер#2] торрент скачать бесплатно




    Первый мститель: Противостояние / Captain America: Civil War (2016) [H.264 / 1080p] [Трейлер#2] торрент скачать бесплатно

    Опубликовал: Админ | Дата: 15-03-2016, 04:00 | Просмотров: 299

    Производство: США/Marvel Entertainment, Marvel Studios
    Жанр: Фантастика, Боевик, Приключения
    Режиссер: Энтони Руссо, Джо Руссо

    Актеры
    Крис Эванс, Роберт Дауни-мл., Чедвик Боузмен, Даниэль Брюль, Элизабет Олсен, Скарлетт Йоханссон

    Описание

    Мстители под руководством Капитана Америки оказываются участниками разрушительного инцидента, имеющего международный масштаб. Эти события заставляют правительство задуматься над тем, чтобы начать регулировать действия всех людей с особыми способностями, введя Акт о регистрации супергероев, вынуждая их раскрыть свои личности и работать на правительственные службы.
    Видя в этом законе нарушение гражданских прав и плевок во всё, что он верит, Стив Роджерс открыто восстаёт против нового режима, ведя за собой группу героев, поддерживающих его мнение. В свою же очередь, Тони Старк видит правильность в новом законе, и становится во главе героев, поддерживающих его. Всё это приводит к неизбежному расколу Мстителей, и гражданской войне между двумя сторонами. Сражаясь друг с другом, Старк и Роджерс не знают о том, что таинственный Барон Земо уже строит свои собственные планы, воспользовавшись расколом величайших героев Земли.

    Дата мировой премьеры: 27 апреля 2016
    Дата премьеры в России: 5 мая 2016, WDSSPR 3D
    Продолжительность: 00: 02: 30
    Качество видео: WEBRip
    Перевод: Дублированный
    Видео: AVC, 1920x1080 (16: 9), 23.976 fps, 18.0 Mbps (0.344 bit/pixel)
    Аудио: AC-3, 48.0 KHz, 6 ch, 448 Kbps, CBR
    Код:

    General
    Unique ID : 339847941708264684930463818443581657134 (0xFFAC552EEF8806490238319296BD902E)
    Complete name : D:CACW_trailer2_rus_HD.mkv
    Format : Matroska
    Format version : Version 4/Version 2
    File size : 320 MiB
    Duration : 2mn 30s
    Overall bit rate : 17.9 Mbps
    Writing application : Lavf55.37.101
    Writing library : Lavf55.37.101
    Video
    ID : 1
    Format : AVC
    Format/Info : Advanced Video Codec
    Format profile :Baseline@L4.1
    Format settings, CABAC : No
    Format settings, ReFrames : 1 frame
    Codec ID : V_MPEG4/ISO/AVC
    Duration : 2mn 30s
    Bit rate : 17.1 Mbps
    Nominal bit rate : 18.0 Mbps
    Width : 1 920 pixels
    Height : 1 080 pixels
    Display aspect ratio : 16:9
    Frame rate mode : Constant
    Frame rate : 23.976 fps
    Color space : YUV
    Chroma subsampling : 4:2:0
    Bit depth : 8 bits
    Scan type : Progressive
    Bits/(Pixel*Frame) : 0.344
    Stream size : 306 MiB (96%)
    Writing library : x264 core 119
    Encoding settings : cabac=0/ref=1/deblock=0:0:0/analyse=0:0/me=dia/subme=0/psy=1/psy_rd=1.00:0.00/mixed_ref=0/me_range=16/chroma_me=1/trellis=0/8x8dct=0/cqm=0/deadzone=21, 11/fast_pskip=1/chroma_qp_offset=0/threads=4/sliced_threads=0/nr=0/decimate=1/interlaced=0/bluray_compat=0/constrained_intra=0/bframes=0/weightp=0/keyint=250/keyint_min=23/scenecut=0/intra_refresh=0/rc=abr/mbtree=0/bitrate=18000/ratetol=1.0/qcomp=0.60/qpmin=0/qpmax=69/qpstep=4/ip_ratio=1.40/aq=0
    Default : Yes
    Forced : No
    HANDLER_NAME : VideoHandler
    Audio
    ID : 2
    Format : AC-3
    Format/Info : Audio Coding 3
    Mode extension : CM (complete main)
    Format settings, Endianness : Big
    Codec ID : A_AC3
    Duration : 2mn 30s
    Bit rate mode : Constant
    Bit rate : 448 Kbps
    Channel(s) : 6 channels
    Channel positions : Front: L C R, Side: L R, LFE
    Sampling rate : 48.0 KHz
    Bit depth : 32 bits
    Compression mode : Lossy
    Delay relative to video : -5ms
    Stream size : 8.02 MiB (3%)
    Language : English
    Default : Yes
    Forced : No
    Encoded date : UTC 2016-03-10 17:13:08
    HANDLER_NAME : IsoMedia File Produced by Google, 5-11-2011


    Скриншоты для ознакомления




    Первый мститель: Противостояние/Captain America: Civil War (2016) [H.264/1080p] [Трейлер#2]
    загрузка...
    Рейтинг →
     (голосов: 1, оценка 5/5, голосовать можно 1 раз )

    Другие торренты по теме:

  • Первый мститель / Captain America: The First Avenger (2011) BDRip [AVO] скачать через торрент бесплатно
  • Первый мститель: Другая война / Captain America: The Winter Soldier (2014) HDRip [AVO] скачать через торрент бесплатно
  • Первый мститель: Дилогия / Captain America: Dilogy (2011, 2014) BDRip [H.264 / 720p] [hand made 60fps] скачать через торрент бесплатно
  • Первый мститель: Противостояние / Captain America: Civil War (2016) WEBRip [H.264 / 1080p] [Трейлер] скачать через торрент бесплатно
  • Первый мститель: Противостояние / Captain America: Civil War (2016) DCPRip [2К] [Hi10P, Hi444PP] [Трейлер A] скачать через торрент бесплатно
  • Henry Jackman - Первый мститель Противостояние / Captain America: Civil War (Original Motion Picture Soundtrack) (2016) [MP3|320 кб / с]<Soundtrack>
  • Henry Jackman - Первый Мститель Противостояние / Captain America: Civil War (Original Motion Picture Soundtrack) (2016) [FLAC|Lossless|WEB-DL|tracks]<Soundtrack>
  • Первый мститель: Противостояние / Captain America: Civil War (2016) CamRip [EN]


    • Комментарии (0):

      Информация

      Информация

        Посетители, находящиеся в группе Гости, не могут оставлять комментарии в данной новости.

        ↓ Меню




        ↓ Опрос

        Вы добавили сайт в закладки?
        Да
        Нет


        Top 10 за месяц (Другое)