.
Авторизация | Регистрация
Хочешь лучшие торренты? Добавь свой email!
Добавить

Торрент скачать бесплатно

» » STARцы (2016) WEBRip [H.264 / 720p-LQ] (1 выпуск) (обновляемая) торрент скачать бесплатно




    STARцы (2016) WEBRip [H.264 / 720p-LQ] (1 выпуск) (обновляемая) торрент скачать бесплатно

    Опубликовал: Админ | Дата: 19-01-2016, 04:02 | Просмотров: 195

    Производство: Россия, ООО Южный порт студиоз
    Жанр: Новостное развлекательное шоу
    Режиссер: Geek-TV

    Актеры
    Александр Плющев, Павел Кушелев, Виктор Зуев, Игорь Игрицкий

    Описание

    Эксперты в области кино, игр и высоких технологий делятся своими взглядами на самые актуальные и животрепещущие новостные темы. Самое интересное в это истории, что об этом Ван дамм ничего не знал. В споре STAR\'цев рождается если и не истина, то уж точно увлекательный дискурс. Ведущий шоу - Александр Плющев (журналист и ведущий на радио Эхо Москвы). Компанию ему составляют эксперты в лице Павла Кушелева (ведущего программы Вести.NET на канале Россия 24), Игоря Игрицкого (главы отдела Культура на Лента.Ру) и Виктора Зуева (редактора сайта disgustingmen.com). Каждый из STAR\'цев освещает свою рубрику: высокие технологии, кино или игры. Шоу выходит каждый четверг.
    Продолжительность: ~ 01: 00: 00 каждый выпуск
    Качество видео: WEBRip
    Видео: AVC/H.264, 1280x720, ~2000 Kbps
    Аудио: AAC, 2 ch, ~100 Kbps, VBR
    Код:

    General
    Complete name : STAR\'цы (2016)1. STAR\'цы - CES 2016, Киберспорт, Выживший [14.01.2016].mp4
    Format : MPEG-4
    Format profile : Base Media
    Codec ID : isom (isom/iso2/avc1/mp41)
    File size : 1.26 GiB
    Duration : 1h 26mn
    Overall bit rate mode : Variable
    Overall bit rate : 2 094 Kbps
    Collection : STAR\'цы
    Season : 3
    Part : 1
    Track name : CES 2016, Киберспорт, Выживший
    Performer : Александр Плющев /Павел Кушелев /Виктор Зуев /Андрей Русанов
    ContentType : TV Show
    Recorded date : 2016-01-14
    Encoded date : UTC 1970-01-01 00:00:00
    Tagged date : UTC 2016-01-15 12:00:00
    Cover : Yes
    Keyword : STAR\'цы
    HDVideo : Yes
    Video
    ID : 1
    Format : AVC
    Format/Info : Advanced Video Codec
    Format profile :Main@L3.1
    Format settings, CABAC : No
    Format settings, ReFrames : 4 frames
    Codec ID : avc1
    Codec ID/Info : Advanced Video Coding
    Duration : 1h 26mn
    Bit rate : 2 000 Kbps
    Width : 1 280 pixels
    Height : 720 pixels
    Display aspect ratio : 16:9
    Frame rate mode : Constant
    Frame rate : 30.000 fps
    Color space : YUV
    Chroma subsampling : 4:2:0
    Bit depth : 8 bits
    Scan type : Progressive
    Bits/(Pixel*Frame) : 0.072
    Stream size : 1.21 GiB (96%)
    Writing library : x264 core 107
    Encoding settings : cabac=0/ref=4/deblock=1:0:0/analyse=0x1:0x111/me=umh/subme=8/psy=1/psy_rd=1.00:0.00/mixed_ref=1/me_range=16/chroma_me=1/trellis=1/8x8dct=0/cqm=0/deadzone=21, 11/fast_pskip=1/chroma_qp_offset=-2/threads=12/sliced_threads=0/nr=0/decimate=1/interlaced=0/constrained_intra=0/bframes=0/weightp=2/keyint=250/keyint_min=25/scenecut=40/intra_refresh=0/rc_lookahead=40/rc=abr/mbtree=1/bitrate=2000/ratetol=2.0/qcomp=0.60/qpmin=10/qpmax=51/qpstep=4/ip_ratio=1.41/aq=1:1.00
    Encoded date : UTC 1970-01-01 00:00:00
    Tagged date : UTC 1970-01-01 00:00:00
    Audio
    ID : 2
    Format : AAC
    Format/Info : Advanced Audio Codec
    Format profile : LC
    Codec ID : 40
    Duration : 1h 26mn
    Bit rate mode : Variable
    Bit rate : 77.0 Kbps
    Maximum bit rate : 164 Kbps
    Channel(s) : 2 channels
    Channel(s)_Original : 11 channels
    Channel positions : , Side: 11
    Sampling rate : 44.1 KHz
    Frame rate : 43.066 fps (1024 spf)
    Compression mode : Lossy
    Stream size : 47.5 MiB (4%)
    Encoded date : UTC 1970-01-01 00:00:00
    Tagged date : UTC 1970-01-01 00:00:00
    14.01.2016 CES 2016, Киберспорт, Выживший


    Скриншоты для ознакомления




    STARцы (2016) WEBRip [H.264/720p-LQ] (1 выпуск) (обновляемая)
    загрузка...
    Рейтинг →
     (голосов: 1, оценка 5/5, голосовать можно 1 раз )

    Другие торренты по теме:

  • Starцы (2015) WEBRip скачать через торрент бесплатно
  • Starцы (2015) WEBRip (14 выпусков) (обновляемая) скачать через торрент бесплатно
  • STARцы (2016) WEBRip [H.264 / 720p-LQ] (3 выпуска) (обновляемая)
  • STARцы (2015-2016) WEBRip [H.264 / 720p-LQ] (сезон 2, выпуски 1-31 из 31)
  • STARцы (2017) WEBRip [H.264 / 720p-LQ] (сезон 4, выпуск 1 из 1) (обновляемая)
  • STARцы (2017) WEBRip [H.264 / 720p-LQ] (сезон 4, выпуски 13-17 из 17) (2017)


    • Комментарии (0):

      Информация

      Информация

        Посетители, находящиеся в группе Гости, не могут оставлять комментарии в данной новости.

        ↓ Меню




        ↓ Опрос

        Вы добавили сайт в закладки?
        Да
        Нет


        Top 10 за месяц (Другое)