.
Авторизация | Регистрация
Хочешь лучшие торренты? Добавь свой email!
Добавить

Торрент скачать бесплатно

» » Хэвенхёрст / Havenhurst (2016) WEB-DLRip [Line] [AD] торрент скачать бесплатно




    Хэвенхёрст / Havenhurst (2016) WEB-DLRip [Line] [AD] торрент скачать бесплатно

    Опубликовал: Админ | Дата: 5-10-2017, 05:00 | Просмотров: 0

    Производство: США
    Жанр: Ужасы, триллер, детектив
    Режиссер: Эндрю С. Эрин

    Актеры
    Джули Бенц, Фионнула Флэнаган, Белль Шусе, Джош Стэмберг, Даниэль Харрис, Дендри Тейлор, Тоби Хасс, Дуглас Тейт, Мэтт Ласки, Дженнифер Бланк

    Описание

    Джеки расследует загадочное исчезновение лучшей подруги. Следы ведут в старинное поместье Хэвенхёрст в самом сердце Нью-Йорка. Его стены скрывают много тайн. Требования к постояльцам строгие: сюда очень сложно попасть. Но ещё сложнее — отсюда выбраться.

    Возраст: 18+ (зрителям, достигшим 18 лет. запрещено для детей)
    Дата мировой премьеры: 14 мая 2016
    Дата премьеры в России: 31 августа 2017

    Продолжительность: 01: 24: 52
    Качество видео: WEB-DLRip
    Перевод: Дублированный (Чистый звук)
    Субтитры: Отсутствуют
    Реклама: Присутствуют аудио и текстовые вставки рекламы, вставки видео вырезаны.
    Видео: MPEG4, XviD, 720x304 (2.35: 1), 23.976 fps, 1 750 Kbps (0.333 bit/pixel)
    Аудио: AC-3, 48.0 KHz, 2 ch, 384 Kbps, CBR

    Общее
    Полное имя : D: NNMХэвенхёрстHavenhurst 2016 WEB-DLRip.avi
    Формат : AVI
    Формат/Информация : Audio Video Interleave
    Размер файла : 1, 27 Гбайт
    Продолжительность : 1 ч. 24 м.
    Общий поток : 2143 Кбит/сек
    Программа кодирования : VirtualDubMod 1.5.10.3 (build 2550/release)
    Библиотека кодирования : VirtualDubMod build 2550/release
    Видео
    Идентификатор : 0
    Формат : MPEG-4 Visual
    Профиль формата : Advanced Simple@L5
    Параметр BVOP формата : 2
    Параметр QPel формата : Нет
    Параметр GMC формата : Без точки перехода
    Параметр матрицы формата : Выборочная
    Идентификатор кодека : XVID
    Идентификатор кодека/Подсказка : XviD
    Продолжительность : 1 ч. 24 м.
    Битрейт : 1750 Кбит/сек
    Ширина : 720 пикселей
    Высота : 304 пикселя
    Соотношение сторон : 2, 35: 1
    Частота кадров : 23, 976 (24000/1001) кадра/сек
    Цветовое пространство : YUV
    Субдискретизация насыщенности : 4: 2: 0
    Битовая глубина : 8 бит
    Тип развёртки : Прогрессивная
    Метод сжатия : С потерями
    Бит/(Пиксели*Кадры) : 0.333
    Размер потока : 1, 04 Гбайт (82%)
    Библиотека кодирования : XviD 1.2.1 (UTC 2008-12-04)
    Аудио
    Идентификатор : 1
    Формат : AC-3
    Формат/Информация : Audio Coding 3
    Расширение режима : CM (complete main)
    Параметр Endianness формата : Big
    Идентификатор кодека : 2000
    Продолжительность : 1 ч. 24 м.
    Вид битрейта : Постоянный
    Битрейт : 384 Кбит/сек
    Каналы : 2 канала
    Расположение каналов : Front: L R
    Частота : 48, 0 КГц
    Частота кадров : 31, 250 кадров/сек (1536 spf)
    Битовая глубина : 16 бит
    Метод сжатия : С потерями
    Задержка видео : 3 мс.
    Размер потока : 233 Мбайт (18%)
    Выравнивание : Разделение по промежуткам
    Продолжительность промежутка : 42 мс. (1, 00 видеокадр)
    Время предзагрузки промежутка : 500 мс.

    Скриншоты для ознакомления



    Все релизы фильма Хэвенхёрст на NNM-Club
    Время раздачи: Круглосуточно до 10 скачавших

    Хэвенхёрст/Havenhurst (2016) WEB-DLRip [Line] [AD]
    загрузка...
    Рейтинг →
     (голосов: 1, оценка 4/5, голосовать можно 1 раз )

    Другие торренты по теме:

  • Хэвенхёрст / Havenhurst (2016) HDRip [VO]


    • Комментарии (0):

      Информация

      Информация

        Посетители, находящиеся в группе Гости, не могут оставлять комментарии в данной новости.

        ↓ Меню




        ↓ Опрос

        Вы добавили сайт в закладки?
        Да
        Нет


        Top 10 за месяц (Другое)