.
Авторизация | Регистрация
Хочешь лучшие торренты? Добавь свой email!
Добавить

Торрент скачать бесплатно

» » Божественные / Divines (2016) HDRip [MVO] [AD] торрент скачать бесплатно




    Божественные / Divines (2016) HDRip [MVO] [AD] торрент скачать бесплатно

    Опубликовал: Админ | Дата: 28-07-2017, 05:00 | Просмотров: 0

    Производство: Франция, Катар/Agence Nationale pour la Cohésion Sociale et l\'Egalité des Chances (ACSE), Angoa-Agicoa
    Жанр: Драма, Криминал
    Режиссер: Уда Беньямина

    Актеры
    Улайя Амамра, Дебора Лукумуена, Кевин Мишель, Иска Кальванда, Ясин Уиша, Вильфред Ромоли, Фарид Ларби, Басс Дем

    Описание

    Фильм рассказывает историю двух лучших подруг — Дуни и Маймуны, которые сражаются за власть и деньги в жестоком парижском пригороде, где они живут. Они начинают работать на наркодилера Ребекку, но талантливый молодой танцор Джигуи хочет увести Дуню другой дорогой.

    Продолжительность: 01: 47: 16
    Качество видео: HDRip
    Перевод: Многоголосый закадровый, любительский - GreenРай Studio
    Субтитры: отсутствуют
    Реклама: присутствуют аудио и видео вставки рекламы
    Видео: Xvid, 720x304, ~1606 Kbps
    Аудио: MP3, 2 ch, 320 Kbps

    General
    Complete name : /media/win/TORRENT/UPLOAD TORRENTS/Divines.2016.BDRip.1.46GB.avi
    Format : AVI
    Format/Info : Audio Video Interleave
    File size : 1.45 GiB
    Duration : 1 h 47 min
    Overall bit rate : 1 935 kb/s
    Writing application : VirtualDubMod 1.5.10.2 (build 2540/release)
    Writing library : VirtualDubMod build 2540/release
    Video
    ID : 0
    Format : MPEG-4 Visual
    Format profile : Advanced Simple@L5
    Format settings, BVOP : 2
    Format settings, QPel : No
    Format settings, GMC : No warppoints
    Format settings, Matrix : Default (MPEG)
    Codec ID : XVID
    Codec ID/Hint : XviD
    Duration : 1 h 47 min
    Bit rate : 1 606 kb/s
    Width : 720 pixels
    Height : 304 pixels
    Display aspect ratio : 2.35: 1
    Frame rate : 23.976 (24000/1001) FPS
    Color space : YUV
    Chroma subsampling : 4: 2: 0
    Bit depth : 8 bits
    Scan type : Progressive
    Compression mode : Lossy
    Bits/(Pixel*Frame) : 0.306
    Stream size : 1.20 GiB (83%)
    Writing library : XviD 1.2.1 (UTC 2008-12-04)
    Audio
    ID : 1
    Format : MPEG Audio
    Format version : Version 1
    Format profile : Layer 3
    Mode : Joint stereo
    Codec ID : 55
    Codec ID/Hint : MP3
    Duration : 1 h 47 min
    Bit rate mode : Constant
    Bit rate : 320 kb/s
    Channel(s) : 2 channels
    Sampling rate : 48.0 kHz
    Compression mode : Lossy
    Stream size : 246 MiB (17%)
    Alignment : Aligned on interleaves
    Interleave, duration : 42 ms (1.00 video frame)
    Interleave, preload duration : 504 ms


    Скриншоты для ознакомления




    Божественные/Divines (2016) HDRip [MVO] [AD]
    загрузка...
    Рейтинг →
     (голосов: 1, оценка 5/5, голосовать можно 1 раз )

    Другие торренты по теме:

  • Земля. Территория загадок. Божественные следы (2014) SATRip скачать через торрент бесплатно
  • Divine Gate / Божественные врата [2016, TV, 1 из 12] HDTV 720p Raw
  • Divine Gate / Божественные врата [2016, TV, 1 из 12] HDTV 720p rus
  • М. П. Гапочка, Ю. Б. Пищик | Идеалы человеческие и божественные (1975) [DJVU, PDF]


    • Комментарии (0):

      Информация

      Информация

        Посетители, находящиеся в группе Гости, не могут оставлять комментарии в данной новости.

        ↓ Меню




        ↓ Опрос

        Вы добавили сайт в закладки?
        Да
        Нет


        Top 10 за месяц (Другое)